Featured TV Shows


Game of Thrones S08E00

Posted By: Tavaz
720p (HD) / WEBRip IMDb
Game of Thrones S08E00

Game of Thrones S08E00
WEBRip | MKV | 1280x720 | English | H264 @ 4737 kbps | E-AC-3 @ 640 kbps | 1 h 53 min | 4.25 GiB
Subtitles: English
Genre: Drama


Seven noble families fight for control of the mythical land of Westeros. Friction between the houses leads to full-scale war. All while a very ancient evil awakens in the farthest north. Amidst the war, a neglected military order of misfits, the Night's Watch, is all that stands between the realms of men and icy horrors beyond.

game.of.thrones.s08e00.the.last.watch.720p.web.h264-memento.mkv (4.2 GB)



General
Unique ID : 239168856059376035255678101779840209843 (0xB3EE3F04AAB192D41D1529CEF96B93B3)
Complete name : ./game.of.thrones.s08e00.the.last.watch.720p.web.h264-memento.mkv
Format : Matroska
Format version : Version 4 / Version 2
File size : 4.25 GiB
Duration : 1 h 53 min
Overall bit rate : 5 380 kb/s
Encoded date : UTC 2019-05-27 01:10:15
Writing application : mkvmerge v33.1.0 ('Primrose') 64-bit
Writing library : libebml v1.3.7 + libmatroska v1.5.0

Video
ID : 1
Format : AVC
Format/Info : Advanced Video Codec
Format profile : High@L3.1
Format settings : CABAC / 4 Ref Frames
Format settings, CABAC : Yes
Format settings, RefFrames : 4 frames
Codec ID : V_MPEG4/ISO/AVC
Duration : 1 h 53 min
Bit rate mode : Constant
Bit rate : 4 738 kb/s
Nominal bit rate : 6 000 kb/s
Width : 1 280 pixels
Height : 720 pixels
Display aspect ratio : 16:9
Frame rate mode : Constant
Frame rate : 23.976 (24000/1001) FPS
Color space : YUV
Chroma subsampling : 4:2:0
Bit depth : 8 bits
Scan type : Progressive
Bits/(Pixel*Frame) : 0.214
Stream size : 3.74 GiB (88%)
Language : English
Default : Yes
Forced : No
Color range : Limited
Color primaries : BT.709
Transfer characteristics : BT.709
Matrix coefficients : BT.709

Audio
ID : 2
Format : E-AC-3
Format/Info : Enhanced Audio Coding 3
Format settings, Endianness : Big
Codec ID : A_EAC3
Duration : 1 h 53 min
Bit rate mode : Constant
Bit rate : 640 kb/s
Channel(s) : 6 channels
Channel positions : Front: L C R, Side: L R, LFE
Sampling rate : 48.0 kHz
Frame rate : 187.500 FPS (256 SPF)
Compression mode : Lossy
Delay relative to video : 18 ms
Stream size : 517 MiB (12%)
Language : English
Service kind : Complete Main
Default : Yes
Forced : No

Text
ID : 3
Format : UTF-8
Codec ID : S_TEXT/UTF8
Codec ID/Info : UTF-8 Plain Text
Duration : 1 h 52 min
Bit rate : 82 b/s
Count of elements : 2036
Stream size : 68.5 KiB (0%)
Language : English
Default : No
Forced : No





Game of Thrones S08E00


Game of Thrones S08E00


Game of Thrones S08E00


Game of Thrones S08E00


Game of Thrones S08E00

All episodes