Featured TV Shows


Game of Thrones S08E02

Posted By: Tavaz
720p (HD) / WEBRip IMDb
Game of Thrones S08E02

Game of Thrones S08E02
WEBRip | MKV | 1280x720 | English | H264 @ 2496 kbps | E-AC-3 @ 640 kbps | 1 h 6 min | 1.45 GiB
Subtitles: English
Genre: Drama


Seven noble families fight for control of the mythical land of Westeros. Friction between the houses leads to full-scale war. All while a very ancient evil awakens in the farthest north. Amidst the war, a neglected military order of misfits, the Night's Watch, is all that stands between the realms of men and icy horrors beyond.

7eee708dc3a34560abc3e3cc8a9a3d40.mkv (1.5 GB)



General
Unique ID : 178980681443846375578862463261055227059 (0x86A66CE61807289FFACB4679052D94B3)
Complete name : ./7eee708dc3a34560abc3e3cc8a9a3d40.mkv
Format : Matroska
Format version : Version 4 / Version 2
File size : 1.45 GiB
Duration : 1 h 6 min
Overall bit rate : 3 137 kb/s
Encoded date : UTC 2019-04-22 01:01:01
Writing application : mkvmerge v33.1.0 ('Primrose') 64-bit
Writing library : libebml v1.3.7 + libmatroska v1.5.0

Video
ID : 1
Format : AVC
Format/Info : Advanced Video Codec
Format profile : High@L3.1
Format settings : CABAC / 4 Ref Frames
Format settings, CABAC : Yes
Format settings, RefFrames : 4 frames
Codec ID : V_MPEG4/ISO/AVC
Duration : 1 h 6 min
Bit rate mode : Constant
Bit rate : 2 496 kb/s
Nominal bit rate : 6 000 kb/s
Width : 1 280 pixels
Height : 720 pixels
Display aspect ratio : 16:9
Frame rate mode : Constant
Frame rate : 23.976 (24000/1001) FPS
Color space : YUV
Chroma subsampling : 4:2:0
Bit depth : 8 bits
Scan type : Progressive
Bits/(Pixel*Frame) : 0.113
Stream size : 1.16 GiB (80%)
Language : English
Default : Yes
Forced : No
Color range : Limited
Color primaries : BT.709
Transfer characteristics : BT.709
Matrix coefficients : BT.709

Audio
ID : 2
Format : E-AC-3
Format/Info : Enhanced Audio Coding 3
Format settings, Endianness : Big
Codec ID : A_EAC3
Duration : 1 h 6 min
Bit rate mode : Constant
Bit rate : 640 kb/s
Channel(s) : 6 channels
Channel positions : Front: L C R, Side: L R, LFE
Sampling rate : 48.0 kHz
Frame rate : 187.500 FPS (256 SPF)
Compression mode : Lossy
Delay relative to video : 20 ms
Stream size : 304 MiB (20%)
Language : English
Service kind : Complete Main
Default : Yes
Forced : No

Text
ID : 3
Format : UTF-8
Codec ID : S_TEXT/UTF8
Codec ID/Info : UTF-8 Plain Text
Duration : 1 h 6 min
Bit rate : 62 b/s
Count of elements : 1025
Stream size : 30.2 KiB (0%)
Language : English
Default : No
Forced : No





Game of Thrones S08E02


Game of Thrones S08E02


Game of Thrones S08E02


Game of Thrones S08E02


Game of Thrones S08E02

All episodes