Featured TV Shows


Game of Thrones S08E02

Posted By: Tavaz
Game of Thrones S08E02

Game of Thrones S08E02
MKV | 1920x1080 | French | H265 @ 1004 kbps | AC-3 @ 384 kbps | 55 min 37 s | 553 MiB
Genre: Drama


Seven noble families fight for control of the mythical land of Westeros. Friction between the houses leads to full-scale war. All while a very ancient evil awakens in the farthest north. Amidst the war, a neglected military order of misfits, the Night's Watch, is all that stands between the realms of men and icy horrors beyond.

Game of Thrones S08E02 FRENCH 1080p 10bit WEBRip AC3 6ch x265 HEVC.mkv (552.7 MB)



General
Unique ID : 316641195762927345202274207194837646976 (0xEE36E0451DED647FF0EDD26614AF7E80)
Complete name : ./Game of Thrones S08E02 FRENCH 1080p 10bit WEBRip AC3 6ch x265 HEVC.mkv
Format : Matroska
Format version : Version 4 / Version 2
File size : 553 MiB
Duration : 55 min 37 s
Overall bit rate : 1 389 kb/s
Encoded date : UTC 2019-04-22 03:23:26
Writing application : mkvmerge v32.0.0 ('Astral Progressions') 64-bit
Writing library : libebml v1.3.7 + libmatroska v1.5.0

Video
ID : 1
Format : HEVC
Format/Info : High Efficiency Video Coding
Format profile : Main 10@L4@Main
Codec ID : V_MPEGH/ISO/HEVC
Duration : 55 min 33 s
Bit rate : 1 005 kb/s
Width : 1 920 pixels
Height : 1 080 pixels
Display aspect ratio : 16:9
Frame rate mode : Constant
Frame rate : 25.000 FPS
Original frame rate : 23.976 (24000/1001) FPS
Color space : YUV
Chroma subsampling : 4:2:0
Bit depth : 10 bits
Bits/(Pixel*Frame) : 0.019
Stream size : 399 MiB (72%)
Title : 1080p
Language : English
Default : Yes
Forced : No
Color range : Limited
Color primaries : BT.709
Transfer characteristics : BT.709
Matrix coefficients : BT.709

Audio
ID : 2
Format : AC-3
Format/Info : Audio Coding 3
Format settings, Endianness : Big
Codec ID : A_AC3
Duration : 55 min 37 s
Bit rate mode : Constant
Bit rate : 384 kb/s
Channel(s) : 6 channels
Channel positions : Front: L C R, Side: L R, LFE
Sampling rate : 48.0 kHz
Frame rate : 31.250 FPS (1536 SPF)
Bit depth : 16 bits
Compression mode : Lossy
Delay relative to video : 16 ms
Stream size : 153 MiB (28%)
Title : Fr AC3-5.1
Language : French
Service kind : Complete Main
Default : Yes
Forced : No





Game of Thrones S08E02


Game of Thrones S08E02


Game of Thrones S08E02


Game of Thrones S08E02


Game of Thrones S08E02

All episodes