Index
# A B C D E F G H I J K L M N O P Q R S T U V W Y Z
Tags
Language
Tags

Featured TV Shows


Game of Thrones S08E02

Posted By: Tavaz
1080p (FullHD) / WEB-DL IMDb
Game of Thrones S08E02

Game of Thrones S08E02
WEB-DL | MKV | 1920x1080 | French / English | H264 @ 6738 kbps | AC-3 @ 384 kbps | 57 min 56 s | 3.14 GiB
Subtitles: French, English
Genre: Drama


Seven noble families fight for control of the mythical land of Westeros. Friction between the houses leads to full-scale war. All while a very ancient evil awakens in the farthest north. Amidst the war, a neglected military order of misfits, the Night's Watch, is all that stands between the realms of men and icy horrors beyond.

Game.of.Thrones.S08E02.MULTi.1080p.AMZN.WEB-DL.DD5.1.H264-ARK01.mkv (3.1 GB)



General
Unique ID : 75094105016095352178669857246453049479 (0x387E993A8E5F243D37BC7507D7962887)
Complete name : ./Game.of.Thrones.S08E02.MULTi.1080p.AMZN.WEB-DL.DD5.1.H264-ARK01.mkv
Format : Matroska
Format version : Version 4 / Version 2
File size : 3.14 GiB
Duration : 57 min 56 s
Overall bit rate : 7 765 kb/s
Movie name : Game.of.Thrones.S08E02.MULTi.1080p.AMZN.WEB-DL.DD5.1.H264-ARK01
Encoded date : UTC 2019-04-22 03:24:44
Writing application : mkvmerge v8.3.0 ('Over the Horizon') 64bit
Writing library : libebml v1.3.1 + libmatroska v1.4.2

Video
ID : 1
Format : AVC
Format/Info : Advanced Video Codec
Format profile : High@L4
Format settings : CABAC / 4 Ref Frames
Format settings, CABAC : Yes
Format settings, RefFrames : 4 frames
Codec ID : V_MPEG4/ISO/AVC
Duration : 57 min 56 s
Bit rate mode : Constant
Bit rate : 6 739 kb/s
Nominal bit rate : 10 000 kb/s
Width : 1 920 pixels
Height : 1 080 pixels
Display aspect ratio : 16:9
Frame rate mode : Constant
Frame rate : 23.976 (24000/1001) FPS
Color space : YUV
Chroma subsampling : 4:2:0
Bit depth : 8 bits
Scan type : Progressive
Bits/(Pixel*Frame) : 0.136
Stream size : 2.73 GiB (87%)
Language : English
Default : Yes
Forced : No
Color range : Limited
Color primaries : BT.709
Transfer characteristics : BT.709
Matrix coefficients : BT.709

Audio #1
ID : 2
Format : AC-3
Format/Info : Audio Coding 3
Format settings, Endianness : Big
Codec ID : A_AC3
Duration : 57 min 56 s
Bit rate mode : Constant
Bit rate : 384 kb/s
Channel(s) : 6 channels
Channel positions : Front: L C R, Side: L R, LFE
Sampling rate : 48.0 kHz
Frame rate : 31.250 FPS (1536 SPF)
Bit depth : 16 bits
Compression mode : Lossy
Stream size : 159 MiB (5%)
Language : French
Service kind : Complete Main
Default : Yes
Forced : No

Audio #2
ID : 3
Format : E-AC-3
Format/Info : Enhanced Audio Coding 3
Format settings, Endianness : Big
Codec ID : A_EAC3
Duration : 57 min 56 s
Bit rate mode : Constant
Bit rate : 640 kb/s
Channel(s) : 6 channels
Channel positions : Front: L C R, Side: L R, LFE
Sampling rate : 48.0 kHz
Frame rate : 187.500 FPS (256 SPF)
Compression mode : Lossy
Stream size : 265 MiB (8%)
Language : English
Service kind : Complete Main
Default : No
Forced : No

Text #1
ID : 4
Format : UTF-8
Codec ID : S_TEXT/UTF8
Codec ID/Info : UTF-8 Plain Text
Duration : 58 s 892 ms
Bit rate : 72 b/s
Count of elements : 15
Stream size : 534 Bytes (0%)
Title : Forced
Language : French
Default : Yes
Forced : No

Text #2
ID : 5
Format : UTF-8
Codec ID : S_TEXT/UTF8
Codec ID/Info : UTF-8 Plain Text
Duration : 55 min 11 s
Bit rate : 46 b/s
Count of elements : 679
Stream size : 18.9 KiB (0%)
Language : French
Default : No
Forced : No

Text #3
ID : 6
Format : UTF-8
Codec ID : S_TEXT/UTF8
Codec ID/Info : UTF-8 Plain Text
Duration : 53 min 42 s
Bit rate : 52 b/s
Count of elements : 740
Stream size : 20.8 KiB (0%)
Language : English
Default : No
Forced : No





Game of Thrones S08E02


Game of Thrones S08E02


Game of Thrones S08E02


Game of Thrones S08E02


Game of Thrones S08E02

All episodes