Featured TV Shows


Game of Thrones S08E03

Posted By: Tavaz
Game of Thrones S08E03

Game of Thrones S08E03
WEB-DL | MKV | 1920x1080 | English | H264 @ 6762 kbps | E-AC-3 @ 640 kbps | 1 h 21 min | 4.32 GiB
Subtitles: English
Genre: Drama

Seven noble families fight for control of the mythical land of Westeros. Friction between the houses leads to full-scale war. All while a very ancient evil awakens in the farthest north. Amidst the war, a neglected military order of misfits, the Night's Watch, is all that stands between the realms of men and icy horrors beyond.

Game of Thrones S08E03 1080p AMZN WEB-DL DDP5.1 H.264-GoT.mkv (4.3 GB)



General
Unique ID : 212104357351173476991471630689724059627 (0x9F91D035763DF487764ABC0F20C8CFEB)
Complete name : ./Game of Thrones S08E03 1080p AMZN WEB-DL DDP5.1 H.264-GoT.mkv
Format : Matroska
Format version : Version 4 / Version 2
File size : 4.32 GiB
Duration : 1 h 21 min
Overall bit rate : 7 553 kb/s
Encoded date : UTC 2019-04-29 01:19:36
Writing application : mkvmerge v33.1.0 ('Primrose') 64-bit
Writing library : libebml v1.3.7 + libmatroska v1.5.0

Video
ID : 1
Format : AVC
Format/Info : Advanced Video Codec
Format profile : High@L4
Format settings : CABAC / 4 Ref Frames
Format settings, CABAC : Yes
Format settings, RefFrames : 4 frames
Codec ID : V_MPEG4/ISO/AVC
Duration : 1 h 21 min
Bit rate mode : Constant
Bit rate : 6 763 kb/s
Nominal bit rate : 10 000 kb/s
Width : 1 920 pixels
Height : 1 080 pixels
Display aspect ratio : 16:9
Frame rate mode : Constant
Frame rate : 23.976 (24000/1001) FPS
Color space : YUV
Chroma subsampling : 4:2:0
Bit depth : 8 bits
Scan type : Progressive
Bits/(Pixel*Frame) : 0.136
Stream size : 3.87 GiB (90%)
Default : Yes
Forced : No
Color range : Limited
Color primaries : BT.709
Transfer characteristics : BT.709
Matrix coefficients : BT.709

Audio
ID : 2
Format : E-AC-3
Format/Info : Enhanced Audio Coding 3
Format settings, Endianness : Big
Codec ID : A_EAC3
Duration : 1 h 21 min
Bit rate mode : Constant
Bit rate : 640 kb/s
Channel(s) : 6 channels
Channel positions : Front: L C R, Side: L R, LFE
Sampling rate : 48.0 kHz
Frame rate : 187.500 FPS (256 SPF)
Compression mode : Lossy
Delay relative to video : 2 ms
Stream size : 375 MiB (8%)
Language : English
Service kind : Complete Main
Default : Yes
Forced : No

Text #1
ID : 3
Format : UTF-8
Codec ID : S_TEXT/UTF8
Codec ID/Info : UTF-8 Plain Text
Language : English
Default : No
Forced : No

Text #2
ID : 4
Format : UTF-8
Codec ID : S_TEXT/UTF8
Codec ID/Info : UTF-8 Plain Text
Title : SDH
Language : English
Default : No
Forced : No

Menu
00:00:00.000 : en:Ratings
00:00:03.890 : en:Studio Logo
00:00:09.890 : en:Opening Credits
00:01:56.890 : en:The calm before the storm
00:06:57.890 : en:The Lord of Light enters the fight
00:13:38.890 : en:The dead are already here
00:20:07.890 : en:Silence in the crypts
00:20:58.890 : en:A snowstorm complicates the battle plan
00:29:42.890 : en:It's time to look the truth in the face
00:33:13.890 : en:Man the wall
00:44:05.890 : en:Wights infiltrate Winterfell
00:49:52.890 : en:What do we say to the god of death?
00:54:18.890 : en:Facing off with the Night King
01:01:25.890 : en:The dead outnumber the living
01:06:25.890 : en:Death has many faces
01:17:27.890 : en:Dawn approaches
01:19:57.890 : en:End Credits
01:21:20.890 : en:Next Time





Game of Thrones S08E03


Game of Thrones S08E03


Game of Thrones S08E03


Game of Thrones S08E03


Game of Thrones S08E03

All episodes