Featured TV Shows


Game of Thrones S08E04

Posted By: Tavaz
720p (HD) / HDTV IMDb
Game of Thrones S08E04

Game of Thrones S08E04
WEB-DL | MKV | 1280x720 | German / English | H264 @ 1649 kbps | AC-3 @ 384 kbps | 1 h 14 min | 1.15 GiB
Genre: Drama


Die Handlung ist in einer fiktiven Welt angesiedelt und spielt auf den Kontinenten Westeros, den Sieben Königreichen sowie im Gebiet der "Mauer" und jenseits davon im Norden und Essos. In dieser Welt ist die Länge der Sommer und Winter unvorhersehbar und variabel; eine Jahreszeit kann Jahre oder sogar Jahrzehnte dauern. Der Handlungsort auf dem Kontinent Westeros in den Sieben Königreichen ähnelt dabei stark dem mittelalterlichen Europa. Die Geschichte spielt am Ende eines langen Sommers und wird in drei Handlungssträngen weitgehend parallel erzählt. In den Sieben Königreichen bauen sich zwischen den mächtigsten Adelshäusern des Reiches Spannungen auf, die schließlich zum offenen Thronkampf führen. Gleichzeitig droht der Wintereinbruch und es zeichnet sich eine Gefahr durch eine fremde Rasse im hohen Norden von Westeros ab. Der dritte Handlungsstrang spielt auf dem Kontinent Essos, wo Daenerys Targaryen, Mitglied der vor Jahren abgesetzten Königsfamilie, bestrebt ist, wieder an die Macht zu gelangen. Die komplexe Handlung umfasst zahlreiche Figuren und thematisiert unter anderem Politik und Machtkämpfe, Gesellschaftsverhältnisse und Religion.

S08E04.mkv (1.2 GB)



General
Unique ID : 335542589314201541343349404125837109539 (0xFC6F26EBF2163AB00799D5697BAFA923)
Complete name : ./Stuehle ruecken S08E04 GermanDL HD/S08E04.mkv
Format : Matroska
Format version : Version 2
File size : 1.15 GiB
Duration : 1 h 14 min
Overall bit rate : 2 228 kb/s
Encoded date : UTC 2019-05-06 06:51:09
Writing application : mkvmerge v31.0.0 ('Dolores In A Shoestand') 64-bit
Writing library : libebml v1.3.6 + libmatroska v1.4.9

Video
ID : 1
Format : AVC
Format/Info : Advanced Video Codec
Format profile : High@L4.1
Format settings : CABAC / 5 Ref Frames
Format settings, CABAC : Yes
Format settings, RefFrames : 5 frames
Codec ID : V_MPEG4/ISO/AVC
Duration : 1 h 14 min
Bit rate : 1 650 kb/s
Width : 1 280 pixels
Height : 720 pixels
Display aspect ratio : 16:9
Frame rate mode : Constant
Frame rate : 25.000 FPS
Color space : YUV
Chroma subsampling : 4:2:0
Bit depth : 8 bits
Scan type : Progressive
Bits/(Pixel*Frame) : 0.072
Stream size : 873 MiB (74%)
Writing library : x264 core 157 r2969 d4099dd
Encoding settings : cabac=1 / ref=5 / deblock=1:-3:-3 / analyse=0x3:0x113 / me=umh / subme=7 / psy=1 / psy_rd=1.00:0.00 / mixed_ref=1 / me_range=16 / chroma_me=1 / trellis=1 / 8x8dct=1 / cqm=0 / deadzone=21,11 / fast_pskip=0 / chroma_qp_offset=-2 / threads=24 / lookahead_threads=4 / sliced_threads=0 / nr=0 / decimate=1 / interlaced=0 / bluray_compat=0 / constrained_intra=0 / bframes=3 / b_pyramid=2 / b_adapt=1 / b_bias=0 / direct=1 / weightb=1 / open_gop=0 / weightp=2 / keyint=250 / keyint_min=25 / scenecut=40 / intra_refresh=0 / rc_lookahead=40 / rc=crf / mbtree=1 / crf=19.0 / qcomp=0.60 / qpmin=0 / qpmax=69 / qpstep=4 / ip_ratio=1.40 / aq=1:1.00
Default : Yes
Forced : No

Audio #1
ID : 2
Format : AC-3
Format/Info : Audio Coding 3
Format settings, Endianness : Big
Codec ID : A_AC3
Duration : 1 h 14 min
Bit rate mode : Constant
Bit rate : 384 kb/s
Channel(s) : 6 channels
Channel positions : Front: L C R, Side: L R, LFE
Sampling rate : 48.0 kHz
Frame rate : 31.250 FPS (1536 SPF)
Bit depth : 16 bits
Compression mode : Lossy
Stream size : 203 MiB (17%)
Language : German
Service kind : Complete Main
Default : Yes
Forced : No

Audio #2
ID : 3
Format : AC-3
Format/Info : Audio Coding 3
Format settings, Endianness : Big
Codec ID : A_AC3
Duration : 1 h 14 min
Bit rate mode : Constant
Bit rate : 192 kb/s
Channel(s) : 2 channels
Channel positions : Front: L R
Sampling rate : 48.0 kHz
Frame rate : 31.250 FPS (1536 SPF)
Bit depth : 16 bits
Compression mode : Lossy
Stream size : 102 MiB (9%)
Language : English
Service kind : Complete Main
Default : No
Forced : No





Game of Thrones S08E04


Game of Thrones S08E04


Game of Thrones S08E04


Game of Thrones S08E04


Game of Thrones S08E04

All episodes