Featured TV Shows


Game of Thrones S08E05

Posted By: Tavaz
Game of Thrones S08E05

Game of Thrones S08E05
MOV | 1280x720 | German / English | H264 @ 1819 kbps | AAC @ 192 kbps | 1 h 16 min | 1.19 GiB
Genre: Drama


Seven noble families fight for control of the mythical land of Westeros. Friction between the houses leads to full-scale war. All while a very ancient evil awakens in the farthest north. Amidst the war, a neglected military order of misfits, the Night's Watch, is all that stands between the realms of men and icy horrors beyond.

Game of Thrones S08E05 - Memento (720p) (German).mp4 (1.2 GB)



General
Complete name : ./Game of Thrones S08E05 - Memento (720p) (German)/Game of Thrones S08E05 - Memento (720p) (German).mp4
Format : MPEG-4
Format profile : Base Media
Codec ID : isom (isom/iso2/avc1/mp41)
File size : 1.19 GiB
Duration : 1 h 16 min
Overall bit rate : 2 219 kb/s
Encoded date : UTC 2019-05-13 02:53:19
Tagged date : UTC 2019-05-13 02:53:19
Writing application : Lavf57.71.100

Video
ID : 1
Format : AVC
Format/Info : Advanced Video Codec
Format profile : Main@L3.1
Format settings : CABAC / 1 Ref Frames
Format settings, CABAC : Yes
Format settings, RefFrames : 1 frame
Format settings, GOP : M=1, N=25
Codec ID : avc1
Codec ID/Info : Advanced Video Coding
Duration : 1 h 16 min
Bit rate : 1 819 kb/s
Width : 1 280 pixels
Height : 720 pixels
Display aspect ratio : 16:9
Frame rate : 25.000 FPS
Color space : YUV
Chroma subsampling : 4:2:0
Bit depth : 8 bits
Scan type : Progressive
Bits/(Pixel*Frame) : 0.079
Stream size : 998 MiB (82%)
Encoded date : UTC 2019-05-13 02:53:19
Tagged date : UTC 2019-05-13 02:53:19

Audio #1
ID : 2
Format : AAC
Format/Info : Advanced Audio Codec
Format profile : LC
Codec ID : mp4a-40-2
Duration : 1 h 16 min
Bit rate mode : Constant
Bit rate : 192 kb/s
Channel(s) : 2 channels
Channel positions : Front: L R
Sampling rate : 48.0 kHz
Frame rate : 46.875 FPS (1024 SPF)
Compression mode : Lossy
Stream size : 107 MiB (9%)
Language : German
Default : Yes
Alternate group : 1
Encoded date : UTC 2019-05-13 02:53:19
Tagged date : UTC 2019-05-13 02:53:19

Audio #2
ID : 3
Format : AAC
Format/Info : Advanced Audio Codec
Format profile : LC
Codec ID : mp4a-40-2
Duration : 1 h 16 min
Bit rate mode : Constant
Bit rate : 192 kb/s
Channel(s) : 2 channels
Channel positions : Front: L R
Sampling rate : 48.0 kHz
Frame rate : 46.875 FPS (1024 SPF)
Compression mode : Lossy
Stream size : 107 MiB (9%)
Language : English
Default : No
Alternate group : 1
Encoded date : UTC 2019-05-13 02:53:19
Tagged date : UTC 2019-05-13 02:53:19





Game of Thrones S08E05


Game 			  		  		  	 			   		  	   		  		  		 	 	  	 			   		  	   			  	  	 			   		   	  			  	  		    			 of Thrones S08E05


Game of Thrones S08E05


Game of Thrones S08E05


Game of Thrones S08E05

All episodes