Featured TV Shows


Genius S02E05

Posted By: Tavaz
1080p (FullHD) / HDTV IMDb
Genius S02E05

Genius S02E05
WEB-DL | MKV | 1920x960 | German / | H264 @ 5844 kbps | AC-3 @ 384 kbps | 49 min 59 s | 2.29 GiB
Genre: Drama

Die Anthologieserie „Genius“ erzählt von Genies unserer Zeit. Die erste Staffel drehte sich um den Erfinder und Wissenschaftler Albert Einstein. In der zweiten Staffel steht der Maler Pablo Picasso im Mittelpunkt.

cmos-gen.s02e05.rp.mkv (2.3 GB)
cmos-gen.s02e05.rp-sample.mkv (31.0 MB)



General
Unique ID : 91886673442147806825956574224733179710 (0x4520BAC63AA7D7C267A17EDC12880F3E)
Complete name : ./cmos-gen.s02e05.rp.mkv
Format : Matroska
Format version : Version 4 / Version 2
File size : 2.29 GiB
Duration : 49 min 59 s
Overall bit rate : 6 551 kb/s
Writing application : Lavf57.71.100
Writing library : Lavf57.71.100
ErrorDetectionType : Per level 1

Video
ID : 1
Format : AVC
Format/Info : Advanced Video Codec
Format profile : High@L4.1
Format settings : CABAC / 4 Ref Frames
Format settings, CABAC : Yes
Format settings, RefFrames : 4 frames
Codec ID : V_MPEG4/ISO/AVC
Duration : 49 min 59 s
Bit rate : 5 845 kb/s
Width : 1 920 pixels
Height : 960 pixels
Display aspect ratio : 2.000
Frame rate mode : Constant
Frame rate : 25.000 FPS
Color space : YUV
Chroma subsampling : 4:2:0
Bit depth : 8 bits
Scan type : Progressive
Bits/(Pixel*Frame) : 0.127
Stream size : 2.04 GiB (89%)
Writing library : x264 core 155 r2901 7d0ff22
Encoding settings : cabac=1 / ref=4 / deblock=1:-3:-3 / analyse=0x3:0x113 / me=umh / subme=7 / psy=1 / psy_rd=1,00:0,00 / mixed_ref=0 / me_range=16 / chroma_me=1 / trellis=1 / 8x8dct=1 / cqm=0 / deadzone=21,11 / fast_pskip=1 / chroma_qp_offset=-2 / threads=24 / lookahead_threads=4 / sliced_threads=0 / nr=0 / decimate=1 / interlaced=0 / bluray_compat=0 / constrained_intra=0 / bframes=3 / b_pyramid=0 / b_adapt=0 / b_bias=0 / direct=1 / weightb=0 / open_gop=0 / weightp=0 / keyint=250 / keyint_min=23 / scenecut=0 / intra_refresh=0 / rc=crf / mbtree=0 / crf=20,0 / qcomp=0,60 / qpmin=0 / qpmax=69 / qpstep=4 / ip_ratio=1,00 / pb_ratio=1,00 / aq=1:1,00
Default : Yes
Forced : No
DURATION : 00:49:59,720000000

Audio #1
ID : 2
Format : AC-3
Format/Info : Audio Coding 3
Format settings, Endianness : Big
Codec ID : A_AC3
Duration : 49 min 59 s
Bit rate mode : Constant
Bit rate : 384 kb/s
Channel(s) : 2 channels
Channel positions : Front: L R
Sampling rate : 48.0 kHz
Frame rate : 31.250 FPS (1536 SPF)
Bit depth : 16 bits
Compression mode : Lossy
Stream size : 137 MiB (6%)
Language : German
Service kind : Complete Main
Default : Yes
Forced : No
DURATION : 00:49:59,696000000

Audio #2
ID : 3
Format : AC-3
Format/Info : Audio Coding 3
Format settings, Endianness : Big
Codec ID : A_AC3
Duration : 49 min 59 s
Bit rate mode : Constant
Bit rate : 192 kb/s
Channel(s) : 2 channels
Channel positions : Front: L R
Sampling rate : 48.0 kHz
Frame rate : 31.250 FPS (1536 SPF)
Bit depth : 16 bits
Compression mode : Lossy
Delay relative to video : 9 ms
Stream size : 68.7 MiB (3%)
Service kind : Complete Main
Default : Yes
Forced : No
DURATION : 00:49:59,705000000





Genius S02E05


Genius S02E05


Genius S02E05


Genius S02E05


Genius S02E05

All episodes