Featured TV Shows


Genius S02E09

Posted By: Tavaz
720p (HD) / HDTV IMDb
Genius S02E09

Genius S02E09
HDTV | MKV | 1280x640 | German | H264 @ 1446 kbps | AC-3 @ 384 kbps | 50 min 12 s | 671 MiB
Genre: Drama

Die Anthologieserie „Genius“ erzählt von Genies unserer Zeit. Die erste Staffel drehte sich um den Erfinder und Wissenschaftler Albert Einstein. In der zweiten Staffel steht der Maler Pablo Picasso im Mittelpunkt.

genius.s02e09.german.720p.hdtv.x264-aced.sample.mkv (17.5 MB)
Genius.S02E09.GERMAN.720p.HDTV.x264-ACED.mkv (670.7 MB)



General
Unique ID : 294570650270213012298193217318451246218 (0xDD9C3E5D2DE27C978CF07BE60DA5748A)
Complete name : ./Genius.S02E09.GERMAN.720p.HDTV.x264-ACED.mkv
Format : Matroska
Format version : Version 4 / Version 2
File size : 671 MiB
Duration : 50 min 12 s
Overall bit rate : 1 867 kb/s
Encoded date : UTC 2018-06-22 08:47:53
Writing application : mkvmerge v24.0.0 ('Beyond The Pale') 64-bit
Writing library : libebml v1.3.6 + libmatroska v1.4.9

Video
ID : 1
Format : AVC
Format/Info : Advanced Video Codec
Format profile : High@L4.1
Format settings : CABAC / 5 Ref Frames
Format settings, CABAC : Yes
Format settings, RefFrames : 5 frames
Codec ID : V_MPEG4/ISO/AVC
Duration : 50 min 12 s
Bit rate : 1 446 kb/s
Width : 1 280 pixels
Height : 640 pixels
Display aspect ratio : 2.000
Frame rate mode : Constant
Frame rate : 25.000 FPS
Color space : YUV
Chroma subsampling : 4:2:0
Bit depth : 8 bits
Scan type : Progressive
Bits/(Pixel*Frame) : 0.071
Stream size : 519 MiB (77%)
Writing library : x264 core 155 r2901 7d0ff22
Encoding settings : cabac=1 / ref=5 / deblock=1:-3:-3 / analyse=0x3:0x113 / me=umh / subme=9 / psy=1 / psy_rd=1.00:0.00 / mixed_ref=1 / me_range=16 / chroma_me=1 / trellis=2 / 8x8dct=1 / cqm=0 / deadzone=21,11 / fast_pskip=0 / chroma_qp_offset=-2 / threads=12 / lookahead_threads=1 / sliced_threads=0 / nr=0 / decimate=1 / interlaced=0 / bluray_compat=0 / constrained_intra=0 / bframes=3 / b_pyramid=2 / b_adapt=2 / b_bias=0 / direct=3 / weightb=1 / open_gop=0 / weightp=2 / keyint=250 / keyint_min=25 / scenecut=40 / intra_refresh=0 / rc_lookahead=50 / rc=crf / mbtree=1 / crf=18.0 / qcomp=0.60 / qpmin=0 / qpmax=69 / qpstep=4 / ip_ratio=1.40 / aq=1:1.00
Language : English
Default : Yes
Forced : No

Audio
ID : 2
Format : AC-3
Format/Info : Audio Coding 3
Format settings, Endianness : Big
Codec ID : A_AC3
Duration : 50 min 12 s
Bit rate mode : Constant
Bit rate : 384 kb/s
Channel(s) : 6 channels
Channel positions : Front: L C R, Side: L R, LFE
Sampling rate : 48.0 kHz
Frame rate : 31.250 FPS (1536 SPF)
Bit depth : 16 bits
Compression mode : Lossy
Stream size : 138 MiB (21%)
Language : German
Service kind : Hearing Impaired
Default : Yes
Forced : No





Genius S02E09


Genius S02E09


Genius S02E09


Genius S02E09


Genius S02E09

All episodes