Index
# A B C D E F G H I J K L M N O P Q R S T U V W Y Z
Tags
Language
Tags

Featured TV Shows


Get Shorty S01E10

Posted By: Tavaz
1080p (FullHD) / WEB-DL IMDb
Get Shorty S01E10

Get Shorty S01E10
WEB-DL | MKV | 1920x1080 | English | H264 @ 6643 kbps | E-AC-3 @ 640 kbps | 58 min 51 s | 3.00 GiB
Subtitles: English
Genre: Crime, Comedy


Miles Daly works as muscle for a murderous crime ring in Nevada and attempts to change professions and become a movie producer, laundering money through a Hollywood film with the help of washed-up filmmaker Rick Moreweather. Based on Elmore Leonard’s 1990 New York Times bestselling novel.

e74c33ad3a2c4e518a6c014b1ee9cdea.mkv (3.0 GB)



General
Unique ID : 231302437943029917850643432488295338642 (0xAE033AA935842874A2DDAA19B7F21292)
Complete name : ./e74c33ad3a2c4e518a6c014b1ee9cdea.mkv
Format : Matroska
Format version : Version 4 / Version 2
File size : 3.00 GiB
Duration : 58 min 51 s
Overall bit rate mode : Variable
Overall bit rate : 7 286 kb/s
Encoded date : UTC 2017-12-04 20:41:08
Writing application : mkvmerge v13.0.0 ('The Juggler') 64bit
Writing library : libebml v1.3.4 + libmatroska v1.4.5

Video
ID : 1
Format : AVC
Format/Info : Advanced Video Codec
Format profile : High@L4
Format settings : CABAC / 4 Ref Frames
Format settings, CABAC : Yes
Format settings, RefFrames : 4 frames
Codec ID : V_MPEG4/ISO/AVC
Duration : 58 min 51 s
Bit rate mode : Variable
Bit rate : 6 644 kb/s
Maximum bit rate : 15.0 Mb/s
Width : 1 920 pixels
Height : 1 080 pixels
Display aspect ratio : 16:9
Frame rate mode : Constant
Frame rate : 23.976 (24000/1001) FPS
Color space : YUV
Chroma subsampling : 4:2:0
Bit depth : 8 bits
Scan type : Progressive
Bits/(Pixel*Frame) : 0.134
Stream size : 2.73 GiB (91%)
Default : Yes
Forced : No
Color range : Limited
Color primaries : BT.709
Transfer characteristics : BT.709
Matrix coefficients : BT.709

Audio
ID : 2
Format : E-AC-3
Format/Info : Enhanced Audio Coding 3
Format settings, Endianness : Big
Codec ID : A_EAC3
Duration : 58 min 51 s
Bit rate mode : Constant
Bit rate : 640 kb/s
Channel(s) : 6 channels
Channel positions : Front: L C R, Side: L R, LFE
Sampling rate : 48.0 kHz
Frame rate : 187.500 FPS (256 SPF)
Compression mode : Lossy
Stream size : 269 MiB (9%)
Language : English
Service kind : Complete Main
Default : Yes
Forced : No

Text
ID : 3
Format : UTF-8
Codec ID : S_TEXT/UTF8
Codec ID/Info : UTF-8 Plain Text
Duration : 56 min 39 s
Bit rate : 70 b/s
Count of elements : 947
Stream size : 29.3 KiB (0%)
Language : English
Default : No
Forced : No





Get Shorty S01E10


Get Shorty S01E10


Get Shorty S01E10


Get Shorty S01E10


Get Shorty S01E10

All episodes