Index
# A B C D E F G H I J K L M N O P Q R S T U V W Y Z
Tags
Language
Tags

Featured TV Shows


Get Shorty S03E07

Posted By: Tavaz
1080p (FullHD) / WEB-DL IMDb
Get Shorty S03E07

Get Shorty S03E07
WEB-DL | MKV | 1920x1080 | H264 @ 7680 kbps | E-AC-3 @ 640 kbps | 1 h 1 min | 3.63 GiB
Genre: Comedy, Crime


Miles Daly works as muscle for a murderous crime ring in Nevada and attempts to change professions and become a movie producer, laundering money through a Hollywood film with the help of washed-up filmmaker Rick Moreweather.

Based on Elmore Leonard’s 1990 New York Times bestselling novel.

58e0b25e4d504deea216185bfe071523.mkv (3.6 GB)



General
Unique ID : 301323438280855787983808211119753732755 (0xE2B0C88495AEB81353BFBD58564D2293)
Complete name : ./58e0b25e4d504deea216185bfe071523.mkv
Format : Matroska
Format version : Version 4 / Version 2
File size : 3.63 GiB
Duration : 1 h 1 min
Overall bit rate : 8 490 kb/s
Writing application : Lavf57.82.100
Writing library : Lavf57.82.100
ErrorDetectionType : Per level 1

Video
ID : 1
Format : AVC
Format/Info : Advanced Video Codec
Format profile : High@L4
Format settings : CABAC / 4 Ref Frames
Format settings, CABAC : Yes
Format settings, RefFrames : 4 frames
Format settings, GOP : M=4, N=48
Codec ID : V_MPEG4/ISO/AVC
Duration : 1 h 1 min
Bit rate mode : Constant
Bit rate : 7 681 kb/s
Nominal bit rate : 10 000 kb/s
Width : 1 920 pixels
Height : 1 080 pixels
Display aspect ratio : 16:9
Frame rate mode : Constant
Frame rate : 23.976 (24000/1001) FPS
Color space : YUV
Chroma subsampling : 4:2:0
Bit depth : 8 bits
Scan type : Progressive
Bits/(Pixel*Frame) : 0.154
Stream size : 3.28 GiB (90%)
Default : Yes
Forced : No
Color range : Limited
Color primaries : BT.709
Transfer characteristics : BT.709
Matrix coefficients : BT.709

Audio
ID : 2
Format : E-AC-3
Format/Info : Enhanced Audio Coding 3
Format settings, Endianness : Big
Codec ID : A_EAC3
Duration : 1 h 1 min
Bit rate mode : Constant
Bit rate : 640 kb/s
Channel(s) : 6 channels
Channel positions : Front: L C R, Side: L R, LFE
Sampling rate : 48.0 kHz
Frame rate : 187.500 FPS (256 SPF)
Bit depth : 32 bits
Compression mode : Lossy
Stream size : 280 MiB (8%)
Service kind : Complete Main
Default : Yes
Forced : No

Text
ID : 3
Format : ASS
Codec ID : S_TEXT/ASS
Codec ID/Info : Advanced Sub Station Alpha
Duration : 1 h 0 min
Compression mode : Lossless
Writing library : Lavc57.106.101 ssa
Default : No
Forced : No





Get Shorty S03E07


Get Shorty S03E07


Get Shorty S03E07


Get Shorty S03E07


Get Shorty S03E07

All episodes