Index
# A B C D E F G H I J K L M N O P Q R S T U V W Y Z
Tags
Language
Tags

Featured TV Shows


Get Shorty S02E01

Posted By: Tavaz
SD / WEB-DL IMDb
Get Shorty S02E01

Get Shorty S02E01
WEB-DL | MKV | 960x540 | English | H264 @ 2361 kbps | AAC @ 127 kbps | 1 h 1 min | 1.06 GiB
Subtitles: English
Genre: Comedy, Crime

Miles Daly works as muscle for a murderous crime ring in Nevada and attempts to change professions and become a movie producer, laundering money through a Hollywood film with the help of washed-up filmmaker Rick Moreweather.

Based on Elmore Leonard’s 1990 New York Times bestselling novel.

Get.Shorty.S02E06.Unlimited.Limited.STAN.WEB-DL.AAC2.0.H.264-BTW.mkv (1023.8 MB)
Get.Shorty.S02E03.Selenite.STAN.WEB-DL.AAC2.0.H.264-BTW.mkv (960.2 MB)
Get.Shorty.S02E10.Pickle.STAN.WEB-DL.AAC2.0.H.264-BTW.mkv (1004.9 MB)
Get.Shorty.S02E04.Well.Let.You.Know.STAN.WEB-DL.AAC2.0.H.264-BTW.mkv (938.0 MB)
Get.Shorty.S02E02.Pest.Control.STAN.WEB-DL.AAC2.0.H.264-BTW.mkv (972.3 MB)
Get.Shorty.S02E05.Fifteen.To.Thirty.Minutes.Depending.On.Weight.STAN.WEB-DL.AAC2.0.H.264-BTW.mkv (845.5 MB)
Get.Shorty.S02E09.Safe.Space.STAN.WEB-DL.AAC2.0.H.264-BTW.mkv (1.0 GB)
Get.Shorty.S02E07.Banana.Split.STAN.WEB-DL.AAC2.0.H.264-BTW.mkv (919.8 MB)
Get.Shorty.S02E01.And.What.Have.We.Learned.STAN.WEB-DL.AAC2.0.H.264-BTW.mkv (1.1 GB)
Get.Shorty.S02E08.Curtains.STAN.WEB-DL.AAC2.0.H.264-BTW.mkv (950.5 MB)



General
Unique ID : 315571037366373552446562138762666114974 (0xED68C5632C8742A894CB36081D68FF9E)
Complete name : ./Get.Shorty.S02E01.And.What.Have.We.Learned.STAN.WEB-DL.AAC2.0.H.264-BTW.mkv
Format : Matroska
Format version : Version 4 / Version 2
File size : 1.06 GiB
Duration : 1 h 1 min
Overall bit rate : 2 491 kb/s
Encoded date : UTC 2018-08-14 00:10:28
Writing application : mkvmerge v19.0.0 ('Brave Captain') 64-bit
Writing library : libebml v1.3.5 + libmatroska v1.4.8

Video
ID : 1
Format : AVC
Format/Info : Advanced Video Codec
Format profile : Main@L3.1
Format settings : CABAC / 4 Ref Frames
Format settings, CABAC : Yes
Format settings, RefFrames : 4 frames
Codec ID : V_MPEG4/ISO/AVC
Duration : 1 h 1 min
Bit rate : 2 361 kb/s
Width : 960 pixels
Height : 540 pixels
Display aspect ratio : 16:9
Frame rate mode : Constant
Frame rate : 23.976 (24000/1001) FPS
Color space : YUV
Chroma subsampling : 4:2:0
Bit depth : 8 bits
Scan type : Progressive
Bits/(Pixel*Frame) : 0.190
Stream size : 1.01 GiB (95%)
Writing library : Zencoder Video Encoding System
Default : Yes
Forced : No
Color range : Limited
Color primaries : BT.709
Transfer characteristics : BT.709
Matrix coefficients : BT.709

Audio
ID : 2
Format : AAC
Format/Info : Advanced Audio Codec
Format profile : LC
Codec ID : A_AAC-2
Duration : 1 h 1 min
Bit rate : 128 kb/s
Channel(s) : 2 channels
Channel positions : Front: L R
Sampling rate : 44.1 kHz
Frame rate : 43.066 FPS (1024 SPF)
Compression mode : Lossy
Stream size : 56.0 MiB (5%)
Language : English
Default : Yes
Forced : No

Text
ID : 3
Format : UTF-8
Codec ID : S_TEXT/UTF8
Codec ID/Info : UTF-8 Plain Text
Duration : 59 min 27 s
Bit rate : 79 b/s
Count of elements : 1088
Stream size : 34.6 KiB (0%)
Language : English
Default : No
Forced : No





Get Shorty S02E01


Get Shorty S02E01


Get Shorty S02E01


Get Shorty S02E01


Get Shorty S02E01

All episodes