Index
# A B C D E F G H I J K L M N O P Q R S T U V W Y Z
Tags
Language
Tags

Featured TV Shows


Get Shorty S02E03

Posted By: Tavaz
SD / WEB-DL IMDb
Get Shorty S02E03

Get Shorty S02E03
WEB-DL | MKV | 960x540 | English | H264 @ 2328 kbps | AAC @ 127 kbps | 54 min 36 s | 960 MiB
Subtitles: English
Genre: Comedy, Crime

Miles Daly works as muscle for a murderous crime ring in Nevada and attempts to change professions and become a movie producer, laundering money through a Hollywood film with the help of washed-up filmmaker Rick Moreweather.

Based on Elmore Leonard’s 1990 New York Times bestselling novel.

1c8fcb347aba437d9880aec55f237f89.mkv (960.2 MB)



General
Unique ID : 53732428878009251270320736251331588583 (0x286C7D47C039AF9EAE949631028DB1E7)
Complete name : ./1c8fcb347aba437d9880aec55f237f89.mkv
Format : Matroska
Format version : Version 4 / Version 2
File size : 960 MiB
Duration : 54 min 36 s
Overall bit rate : 2 458 kb/s
Encoded date : UTC 2018-08-20 16:13:49
Writing application : mkvmerge v19.0.0 ('Brave Captain') 64-bit
Writing library : libebml v1.3.5 + libmatroska v1.4.8

Video
ID : 1
Format : AVC
Format/Info : Advanced Video Codec
Format profile : Main@L3.1
Format settings : CABAC / 4 Ref Frames
Format settings, CABAC : Yes
Format settings, RefFrames : 4 frames
Codec ID : V_MPEG4/ISO/AVC
Duration : 54 min 36 s
Bit rate : 2 328 kb/s
Width : 960 pixels
Height : 540 pixels
Display aspect ratio : 16:9
Frame rate mode : Constant
Frame rate : 23.976 (24000/1001) FPS
Color space : YUV
Chroma subsampling : 4:2:0
Bit depth : 8 bits
Scan type : Progressive
Bits/(Pixel*Frame) : 0.187
Stream size : 909 MiB (95%)
Writing library : Zencoder Video Encoding System
Default : Yes
Forced : No
Color range : Limited
Color primaries : BT.709
Transfer characteristics : BT.709
Matrix coefficients : BT.709

Audio
ID : 2
Format : AAC
Format/Info : Advanced Audio Codec
Format profile : LC
Codec ID : A_AAC-2
Duration : 54 min 36 s
Bit rate : 128 kb/s
Channel(s) : 2 channels
Channel positions : Front: L R
Sampling rate : 44.1 kHz
Frame rate : 43.066 FPS (1024 SPF)
Compression mode : Lossy
Stream size : 50.0 MiB (5%)
Language : English
Default : Yes
Forced : No

Text
ID : 3
Format : UTF-8
Codec ID : S_TEXT/UTF8
Codec ID/Info : UTF-8 Plain Text
Duration : 52 min 9 s
Bit rate : 70 b/s
Count of elements : 913
Stream size : 26.8 KiB (0%)
Language : English
Default : No
Forced : No





Get Shorty S02E03


Get Shorty S02E03


Get Shorty S02E03


Get Shorty S02E03


Get Shorty S02E03

All episodes