Index
# A B C D E F G H I J K L M N O P Q R S T U V W Y Z
Tags
Language
Tags

Featured TV Shows


Get Shorty S03E06

Posted By:
1080p (FullHD) / WEBRip IMDb
Get Shorty S03E06

Get Shorty S03E06
WEBRip | MKV | 1920x1080 | H264 @ 7319 kbps | E-AC-3 @ 640 kbps | 58 min 57 s | 3.34 GiB
Genre: Comedy, Crime


Miles Daly works as muscle for a murderous crime ring in Nevada and attempts to change professions and become a movie producer, laundering money through a Hollywood film with the help of washed-up filmmaker Rick Moreweather.

Based on Elmore Leonard’s 1990 New York Times bestselling novel.

47cd95a9e69848b1bf9ab925b1a4291e.mkv (3.3 GB)



General
Unique ID : 179780502115961902216698355338464022264 (0x8740771A3E9C411AE62A84A5B1454EF8)
Complete name : ./47cd95a9e69848b1bf9ab925b1a4291e.mkv
Format : Matroska
Format version : Version 4 / Version 2
File size : 3.34 GiB
Duration : 58 min 57 s
Overall bit rate : 8 121 kb/s
Writing application : Lavf57.82.100
Writing library : Lavf57.82.100
ErrorDetectionType : Per level 1

Video
ID : 1
Format : AVC
Format/Info : Advanced Video Codec
Format profile : High@L4
Format settings : CABAC / 4 Ref Frames
Format settings, CABAC : Yes
Format settings, RefFrames : 4 frames
Codec ID : V_MPEG4/ISO/AVC
Duration : 58 min 56 s
Bit rate mode : Constant
Bit rate : 7 319 kb/s
Nominal bit rate : 10 000 kb/s
Width : 1 920 pixels
Height : 1 080 pixels
Display aspect ratio : 16:9
Frame rate mode : Constant
Frame rate : 23.976 (24000/1001) FPS
Color space : YUV
Chroma subsampling : 4:2:0
Bit depth : 8 bits
Scan type : Progressive
Bits/(Pixel*Frame) : 0.147
Stream size : 3.01 GiB (90%)
Default : Yes
Forced : No
Color range : Limited
Color primaries : BT.709
Transfer characteristics : BT.709
Matrix coefficients : BT.709

Audio
ID : 2
Format : E-AC-3
Format/Info : Enhanced Audio Coding 3
Format settings, Endianness : Big
Codec ID : A_EAC3
Duration : 58 min 57 s
Bit rate mode : Constant
Bit rate : 640 kb/s
Channel(s) : 6 channels
Channel positions : Front: L C R, Side: L R, LFE
Sampling rate : 48.0 kHz
Frame rate : 187.500 FPS (256 SPF)
Bit depth : 32 bits
Compression mode : Lossy
Delay relative to video : -1 s 0 ms
Stream size : 270 MiB (8%)
Service kind : Complete Main
Default : Yes
Forced : No

Text
ID : 3
Format : ASS
Codec ID : S_TEXT/ASS
Codec ID/Info : Advanced Sub Station Alpha
Duration : 58 min 43 s
Compression mode : Lossless
Writing library : Lavc57.106.101 ssa
Default : No
Forced : No





Get Shorty S03E06


Get Shorty S03E06


Get Shorty S03E06


Get Shorty S03E06


Get Shorty S03E06

All episodes