Featured TV Shows


Good Girls S02E02

Posted By: Tavaz
720p (HD) / WEBRip IMDb
Good Girls S02E02

Good Girls S02E02
WEBRip | MKV | 1280x720 | English | H264 @ 3796 kbps | E-AC-3 @ 640 kbps | 42 min 28 s | 1.32 GiB
Subtitles: English
Genre: Comedy, Drama

Three "good girl" suburban wives and mothers suddenly find themselves in desperate circumstances and decide to stop playing it safe and risk everything to take their power back.

32b9eb6a1d4b4474b3326c3887df1082.mkv (1.3 GB)



General
Unique ID : 149607729687636814532458124580141867712 (0x708D66911C7734376B5F01476ECB22C0)
Complete name : ./32b9eb6a1d4b4474b3326c3887df1082.mkv
Format : Matroska
Format version : Version 4 / Version 2
File size : 1.32 GiB
Duration : 42 min 28 s
Overall bit rate : 4 438 kb/s
Encoded date : UTC 2019-03-11 07:03:36
Writing application : mkvmerge v30.1.0 ('Forever And More') 64-bit
Writing library : libebml v1.3.6 + libmatroska v1.4.9

Video
ID : 1
Format : AVC
Format/Info : Advanced Video Codec
Format profile : High@L3.1
Format settings : CABAC / 4 Ref Frames
Format settings, CABAC : Yes
Format settings, RefFrames : 4 frames
Codec ID : V_MPEG4/ISO/AVC
Duration : 42 min 28 s
Bit rate mode : Constant
Bit rate : 3 796 kb/s
Nominal bit rate : 6 000 kb/s
Width : 1 280 pixels
Height : 720 pixels
Display aspect ratio : 16:9
Frame rate mode : Constant
Frame rate : 23.976 (24000/1001) FPS
Color space : YUV
Chroma subsampling : 4:2:0
Bit depth : 8 bits
Scan type : Progressive
Bits/(Pixel*Frame) : 0.172
Stream size : 1.13 GiB (86%)
Language : English
Default : Yes
Forced : No
Color range : Limited
Color primaries : BT.709
Transfer characteristics : BT.709
Matrix coefficients : BT.709

Audio
ID : 2
Format : E-AC-3
Format/Info : Enhanced Audio Coding 3
Format settings, Endianness : Big
Codec ID : A_EAC3
Duration : 42 min 28 s
Bit rate mode : Constant
Bit rate : 640 kb/s
Channel(s) : 6 channels
Channel positions : Front: L C R, Side: L R, LFE
Sampling rate : 48.0 kHz
Frame rate : 187.500 FPS (256 SPF)
Compression mode : Lossy
Stream size : 194 MiB (14%)
Language : English
Service kind : Complete Main
Default : Yes
Forced : No

Text
ID : 3
Format : UTF-8
Codec ID : S_TEXT/UTF8
Codec ID/Info : UTF-8 Plain Text
Duration : 42 min 9 s
Bit rate : 71 b/s
Count of elements : 751
Stream size : 22.2 KiB (0%)
Language : English
Default : No
Forced : No





Good Girls S02E02


Good Girls S02E02


Good Girls S02E02


Good Girls S02E02


Good Girls S02E02

All episodes