Featured TV Shows


Good Girls S02E03

Posted By: Tavaz
720p (HD) / WEBRip IMDb
Good Girls S02E03

Good Girls S02E03
WEBRip | MKV | 1280x720 | English | H264 @ 3950 kbps | E-AC-3 @ 640 kbps | 41 min 31 s | 1.33 GiB
Subtitles: English
Genre: Comedy, Drama

Three "good girl" suburban wives and mothers suddenly find themselves in desperate circumstances and decide to stop playing it safe and risk everything to take their power back.

c1f1c1f05f544ba7b5f07dc056e2e2b8.mkv (1.3 GB)



General
Unique ID : 183959933737960821949044449733088727479 (0x8A6564FDA594D093E0B8FE6F5BF151B7)
Complete name : ./c1f1c1f05f544ba7b5f07dc056e2e2b8.mkv
Format : Matroska
Format version : Version 4 / Version 2
File size : 1.33 GiB
Duration : 41 min 31 s
Overall bit rate : 4 593 kb/s
Encoded date : UTC 2019-03-18 07:03:27
Writing application : mkvmerge v31.0.0 ('Dolores In A Shoestand') 64-bit
Writing library : libebml v1.3.6 + libmatroska v1.4.9

Video
ID : 1
Format : AVC
Format/Info : Advanced Video Codec
Format profile : High@L3.1
Format settings : CABAC / 4 Ref Frames
Format settings, CABAC : Yes
Format settings, RefFrames : 4 frames
Codec ID : V_MPEG4/ISO/AVC
Duration : 41 min 31 s
Bit rate mode : Constant
Bit rate : 3 951 kb/s
Nominal bit rate : 6 000 kb/s
Width : 1 280 pixels
Height : 720 pixels
Display aspect ratio : 16:9
Frame rate mode : Constant
Frame rate : 23.976 (24000/1001) FPS
Color space : YUV
Chroma subsampling : 4:2:0
Bit depth : 8 bits
Scan type : Progressive
Bits/(Pixel*Frame) : 0.179
Stream size : 1.15 GiB (86%)
Language : English
Default : Yes
Forced : No
Color range : Limited
Color primaries : BT.709
Transfer characteristics : BT.709
Matrix coefficients : BT.709

Audio
ID : 2
Format : E-AC-3
Format/Info : Enhanced Audio Coding 3
Format settings, Endianness : Big
Codec ID : A_EAC3
Duration : 41 min 31 s
Bit rate mode : Constant
Bit rate : 640 kb/s
Channel(s) : 6 channels
Channel positions : Front: L C R, Side: L R, LFE
Sampling rate : 48.0 kHz
Frame rate : 187.500 FPS (256 SPF)
Compression mode : Lossy
Stream size : 190 MiB (14%)
Language : English
Service kind : Complete Main
Default : Yes
Forced : No

Text
ID : 3
Format : UTF-8
Codec ID : S_TEXT/UTF8
Codec ID/Info : UTF-8 Plain Text
Duration : 40 min 11 s
Bit rate : 64 b/s
Count of elements : 748
Stream size : 18.9 KiB (0%)
Language : English
Default : No
Forced : No





Good Girls S02E03


Good Girls S02E03


Good Girls S02E03


Good Girls S02E03


Good Girls S02E03

All episodes