Featured TV Shows


Good Girls S02E08

Posted By: Tavaz
SD / HDTV IMDb
Good Girls S02E08

Good Girls S02E08
HDTV | MKV | 720x404 | English | H264 @ 598 kbps | AAC @ 101 kbps | 42 min 14 s | 212 MiB
Subtitles: English
Genre: Comedy, Drama


Three "good girl" suburban wives and mothers suddenly find themselves in desperate circumstances and decide to stop playing it safe and risk everything to take their power back.

347f0fcec9ff446cb432ebe18cca18d9.mkv (212.2 MB)



General
Unique ID : 181642670882205661127014261806811075206 (0x88A71B1C765EE1F324C35AAA43905286)
Complete name : ./347f0fcec9ff446cb432ebe18cca18d9.mkv
Format : Matroska
Format version : Version 4 / Version 2
File size : 212 MiB
Duration : 42 min 14 s
Overall bit rate : 702 kb/s
Movie name : Good.Girls.S02E08.HDTV.x264-LucidTV
Encoded date : UTC 2019-04-22 04:38:44
Writing application : mkvmerge v32.0.0 ('Astral Progressions') 64-bit
Writing library : libebml v1.3.7 + libmatroska v1.5.0

Video
ID : 1
Format : AVC
Format/Info : Advanced Video Codec
Format profile : High@L3.1
Format settings : CABAC / 5 Ref Frames
Format settings, CABAC : Yes
Format settings, RefFrames : 5 frames
Codec ID : V_MPEG4/ISO/AVC
Duration : 42 min 14 s
Bit rate : 598 kb/s
Width : 720 pixels
Height : 404 pixels
Display aspect ratio : 16:9
Frame rate mode : Constant
Frame rate : 23.976 (24000/1001) FPS
Color space : YUV
Chroma subsampling : 4:2:0
Bit depth : 8 bits
Scan type : Progressive
Bits/(Pixel*Frame) : 0.086
Stream size : 181 MiB (85%)
Writing library : x264 core 157 r2969 d4099dd
Encoding settings : cabac=1 / ref=5 / deblock=1:0:0 / analyse=0x3:0x113 / me=hex / subme=8 / psy=1 / psy_rd=1.00:0.00 / mixed_ref=1 / me_range=16 / chroma_me=1 / trellis=2 / 8x8dct=1 / cqm=0 / deadzone=21,11 / fast_pskip=1 / chroma_qp_offset=-2 / threads=13 / lookahead_threads=2 / sliced_threads=0 / nr=0 / decimate=1 / interlaced=0 / bluray_compat=0 / constrained_intra=0 / bframes=3 / b_pyramid=2 / b_adapt=1 / b_bias=0 / direct=3 / weightb=1 / open_gop=0 / weightp=2 / keyint=250 / keyint_min=23 / scenecut=40 / intra_refresh=0 / rc_lookahead=50 / rc=crf / mbtree=1 / crf=19.0 / qcomp=0.60 / qpmin=0 / qpmax=69 / qpstep=4 / ip_ratio=1.40 / aq=1:1.00
Language : English
Default : Yes
Forced : No
Color range : Limited
Matrix coefficients : BT.709

Audio
ID : 2
Format : AAC
Format/Info : Advanced Audio Codec
Format profile : LC
Codec ID : A_AAC-2
Duration : 42 min 14 s
Bit rate : 102 kb/s
Channel(s) : 2 channels
Channel positions : Front: L R
Sampling rate : 48.0 kHz
Frame rate : 46.875 FPS (1024 SPF)
Compression mode : Lossy
Delay relative to video : 20 ms
Stream size : 30.7 MiB (14%)
Language : English
Default : Yes
Forced : No

Text
ID : 3
Format : UTF-8
Codec ID : S_TEXT/UTF8
Codec ID/Info : UTF-8 Plain Text
Duration : 42 min 12 s
Bit rate : 99 b/s
Count of elements : 827
Stream size : 30.8 KiB (0%)
Language : English
Default : No
Forced : No





Good Girls S02E08


Good Girls S02E08


Good Girls S02E08


Good Girls S02E08


Good Girls S02E08

All episodes