Featured TV Shows


Good Girls S02E10

Posted By: Tavaz
1080p (FullHD) / WEBRip IMDb
Good Girls S02E10

Good Girls S02E10
WEBRip | MKV | 1920x1080 | English | H264 @ 9196 kbps | E-AC-3 @ 640 kbps | 42 min 37 s | 2.93 GiB
Subtitles: English
Genre: Comedy, Drama


Three "good girl" suburban wives and mothers suddenly find themselves in desperate circumstances and decide to stop playing it safe and risk everything to take their power back.

Good.Girls.S02E10.1080p.WEB.H264-AMCON.mkv (2.9 GB)



General
Unique ID : 55271666260978687163486805077992330415 (0x2994EF8AE016DCFDA6FDC624DAA2D4AF)
Complete name : ./Good.Girls.S02E10.1080p.WEB.H264-AMCON.mkv
Format : Matroska
Format version : Version 4 / Version 2
File size : 2.93 GiB
Duration : 42 min 37 s
Overall bit rate : 9 839 kb/s
Encoded date : UTC 2019-05-06 07:01:45
Writing application : mkvmerge v33.1.0 ('Primrose') 64-bit
Writing library : libebml v1.3.7 + libmatroska v1.5.0

Video
ID : 1
Format : AVC
Format/Info : Advanced Video Codec
Format profile : High@L4
Format settings : CABAC / 4 Ref Frames
Format settings, CABAC : Yes
Format settings, RefFrames : 4 frames
Codec ID : V_MPEG4/ISO/AVC
Duration : 42 min 37 s
Bit rate mode : Constant
Bit rate : 9 197 kb/s
Nominal bit rate : 10 000 kb/s
Width : 1 920 pixels
Height : 1 080 pixels
Display aspect ratio : 16:9
Frame rate mode : Constant
Frame rate : 23.976 (24000/1001) FPS
Color space : YUV
Chroma subsampling : 4:2:0
Bit depth : 8 bits
Scan type : Progressive
Bits/(Pixel*Frame) : 0.185
Stream size : 2.74 GiB (93%)
Language : English
Default : Yes
Forced : No
Color range : Limited
Color primaries : BT.709
Transfer characteristics : BT.709
Matrix coefficients : BT.709

Audio
ID : 2
Format : E-AC-3
Format/Info : Enhanced Audio Coding 3
Format settings, Endianness : Big
Codec ID : A_EAC3
Duration : 42 min 37 s
Bit rate mode : Constant
Bit rate : 640 kb/s
Channel(s) : 6 channels
Channel positions : Front: L C R, Side: L R, LFE
Sampling rate : 48.0 kHz
Frame rate : 187.500 FPS (256 SPF)
Compression mode : Lossy
Stream size : 195 MiB (7%)
Language : English
Service kind : Complete Main
Default : Yes
Forced : No

Text
ID : 3
Format : UTF-8
Codec ID : S_TEXT/UTF8
Codec ID/Info : UTF-8 Plain Text
Duration : 41 min 1 s
Bit rate : 70 b/s
Count of elements : 731
Stream size : 21.2 KiB (0%)
Title : English
Language : English
Default : No
Forced : No





Good Girls S02E10


Good Girls S02E10


Good Girls S02E10


Good Girls S02E10


Good Girls S02E10

All episodes