Featured TV Shows


Good Girls S02E11

Posted By: Tavaz
720p (HD) / HDTV IMDb
Good Girls S02E11

Good Girls S02E11
HDTV | MKV | 1280x720 | English | H264 @ 2566 kbps | AC-3 @ 384 kbps | 42 min 51 s | 905 MiB
Subtitles: English
Genre: Comedy, Drama


Three "good girl" suburban wives and mothers suddenly find themselves in desperate circumstances and decide to stop playing it safe and risk everything to take their power back.

fac8a9800d2d42d5912cb7da38ad7d58.mkv (904.9 MB)



General
Unique ID : 80737474957415409657117962059633995541 (0x3CBD78D9485B9C4CF205837B51B92F15)
Complete name : ./fac8a9800d2d42d5912cb7da38ad7d58.mkv
Format : Matroska
Format version : Version 4 / Version 2
File size : 905 MiB
Duration : 42 min 51 s
Overall bit rate : 2 952 kb/s
Encoded date : UTC 2019-05-13 05:12:08
Writing application : mkvmerge v32.0.0 ('Astral Progressions') 64-bit
Writing library : libebml v1.3.7 + libmatroska v1.5.0

Video
ID : 2
Format : AVC
Format/Info : Advanced Video Codec
Format profile : High@L4.1
Format settings : CABAC / 5 Ref Frames
Format settings, CABAC : Yes
Format settings, RefFrames : 5 frames
Codec ID : V_MPEG4/ISO/AVC
Duration : 42 min 51 s
Bit rate : 2 566 kb/s
Width : 1 280 pixels
Height : 720 pixels
Display aspect ratio : 16:9
Frame rate mode : Constant
Frame rate : 23.976 (24000/1001) FPS
Color space : YUV
Chroma subsampling : 4:2:0
Bit depth : 8 bits
Scan type : Progressive
Bits/(Pixel*Frame) : 0.116
Stream size : 787 MiB (87%)
Writing library : x264 core 157 r2970 5493be8
Encoding settings : cabac=1 / ref=5 / deblock=1:-3:-3 / analyse=0x3:0x113 / me=umh / subme=8 / psy=1 / psy_rd=1.00:0.15 / mixed_ref=1 / me_range=16 / chroma_me=1 / trellis=2 / 8x8dct=1 / cqm=0 / deadzone=21,11 / fast_pskip=1 / chroma_qp_offset=-3 / threads=12 / lookahead_threads=2 / sliced_threads=0 / nr=0 / decimate=1 / interlaced=0 / bluray_compat=0 / constrained_intra=0 / bframes=3 / b_pyramid=2 / b_adapt=2 / b_bias=0 / direct=3 / weightb=1 / open_gop=0 / weightp=2 / keyint=240 / keyint_min=23 / scenecut=40 / intra_refresh=0 / rc_lookahead=50 / rc=crf / mbtree=1 / crf=18.0 / qcomp=0.60 / qpmin=0 / qpmax=69 / qpstep=4 / vbv_maxrate=62500 / vbv_bufsize=78125 / crf_max=0.0 / nal_hrd=none / filler=0 / ip_ratio=1.40 / aq=1:1.00
Language : English
Default : Yes
Forced : No
Color range : Limited
Matrix coefficients : BT.709

Audio
ID : 1
Format : AC-3
Format/Info : Audio Coding 3
Format settings, Endianness : Big
Codec ID : A_AC3
Duration : 42 min 51 s
Bit rate mode : Constant
Bit rate : 384 kb/s
Channel(s) : 6 channels
Channel positions : Front: L C R, Side: L R, LFE
Sampling rate : 48.0 kHz
Frame rate : 31.250 FPS (1536 SPF)
Bit depth : 16 bits
Compression mode : Lossy
Delay relative to video : 54 ms
Stream size : 118 MiB (13%)
Language : English
Service kind : Complete Main
Default : Yes
Forced : No

Text
ID : 3
Format : UTF-8
Codec ID : S_TEXT/UTF8
Codec ID/Info : UTF-8 Plain Text
Duration : 42 min 47 s
Bit rate : 100 b/s
Count of elements : 848
Stream size : 31.5 KiB (0%)
Language : English
Default : No
Forced : No





Good Girls S02E11


Good Girls S02E11


Good Girls S02E11


Good Girls S02E11


Good Girls S02E11

All episodes