Gotham S03E22

Posted By: Tavaz
720p (HD) / BDRip IMDb
Gotham S03E22

Gotham S03E22
BDRip | MKV | 1280x720 | French | H264 @ 4546 kbps | AC-3 @ 192 kbps | 43 min 59 s | 1.46 GiB
Subtitles: French
Genre: Crime, Drame, Fantastique, Thriller

Tout le monde connaît le Commissaire Gordon, adversaire redouté de la pègre de Gotham City, un homme dont la réputation rime avec la loi et l'ordre. Mais que sait-on de son histoire, de son ascension de policier débutant à commissaire ? Qu'est-ce que cela coûte de se frayer un chemin dans une ville régie secrètement par la corruption telle que Gotham City, terrain fertile des méchants les plus emblématiques ? Comment sont nés ces personnages hors du commun que sont Catwoman, le Pingouin, l'Homme-mystère, Double-Face et le Joker ?

Gotham.S03E22.FiNAL.FRENCH.720p.BluRay.x264-SODAPOP.mkv (1.5 GB)



General
Unique ID : 35935175726543860633049722194606025315 (0x1B08DCF40BF33DF12F41699D89B5EA63)
Complete name : ./Gotham.S03E22.FiNAL.FRENCH.720p.BluRay.x264-SODAPOP.mkv
Format : Matroska
Format version : Version 4 / Version 2
File size : 1.46 GiB
Duration : 43 min 59 s
Overall bit rate : 4 739 kb/s
Encoded date : UTC 2018-02-10 11:24:00
Writing application : mkvmerge v19.0.0 ('Brave Captain') 64-bit
Writing library : libebml v1.3.5 + libmatroska v1.4.8

Video
ID : 1
Format : AVC
Format/Info : Advanced Video Codec
Format profile : High@L4.1
Format settings : CABAC / 5 Ref Frames
Format settings, CABAC : Yes
Format settings, RefFrames : 5 frames
Codec ID : V_MPEG4/ISO/AVC
Duration : 43 min 59 s
Bit rate : 4 546 kb/s
Width : 1 280 pixels
Height : 720 pixels
Display aspect ratio : 16:9
Frame rate mode : Constant
Frame rate : 23.976 (24000/1001) FPS
Color space : YUV
Chroma subsampling : 4:2:0
Bit depth : 8 bits
Scan type : Progressive
Bits/(Pixel*Frame) : 0.206
Stream size : 1.40 GiB (96%)
Writing library : x264 core 152 r2851 ba24899
Encoding settings : cabac=1 / ref=5 / deblock=1:0:0 / analyse=0x3:0x133 / me=umh / subme=8 / psy=1 / psy_rd=1.00:0.00 / mixed_ref=1 / me_range=16 / chroma_me=1 / trellis=1 / 8x8dct=1 / cqm=0 / deadzone=21,11 / fast_pskip=1 / chroma_qp_offset=-2 / threads=22 / lookahead_threads=3 / sliced_threads=0 / nr=0 / decimate=1 / interlaced=0 / bluray_compat=0 / constrained_intra=0 / bframes=3 / b_pyramid=2 / b_adapt=1 / b_bias=0 / direct=3 / weightb=1 / open_gop=0 / weightp=2 / keyint=240 / keyint_min=23 / scenecut=40 / intra_refresh=0 / rc_lookahead=50 / rc=2pass / mbtree=1 / bitrate=4546 / ratetol=1.0 / qcomp=0.60 / qpmin=0 / qpmax=69 / qpstep=4 / cplxblur=20.0 / qblur=0.5 / ip_ratio=1.40 / aq=1:1.00
Language : English
Default : Yes
Forced : No

Audio
ID : 2
Format : AC-3
Format/Info : Audio Coding 3
Mode : Dolby Digital
Format settings, Endianness : Big
Codec ID : A_AC3
Duration : 43 min 59 s
Bit rate mode : Constant
Bit rate : 192 kb/s
Channel(s) : 2 channels
Channel positions : Front: L R
Sampling rate : 48.0 kHz
Frame rate : 31.250 FPS (1536 SPF)
Bit depth : 16 bits
Compression mode : Lossy
Stream size : 60.4 MiB (4%)
Title : French AC3 192kbps
Language : French
Service kind : Complete Main
Default : Yes
Forced : No

Text
ID : 3
Format : UTF-8
Codec ID : S_TEXT/UTF8
Codec ID/Info : UTF-8 Plain Text
Duration : 22 min 5 s
Bit rate : 0 b/s
Count of elements : 3
Stream size : 54.0 Bytes (0%)
Title : Forced
Language : French
Default : Yes
Forced : No

Menu
00:00:00.000 : en:00:00:00.000
00:00:43.168 : en:00:00:43.168
00:03:06.395 : en:00:03:06.395
00:08:14.953 : en:00:08:14.953
00:13:34.397 : en:00:13:34.397
00:19:32.046 : en:00:19:32.046
00:25:40.080 : en:00:25:40.080
00:34:02.540 : en:00:34:02.540
00:43:19.931 : en:00:43:19.931





Gotham S03E22


Gotham S03E22


Gotham S03E22


Gotham S03E22


Gotham S03E22

All episodes