Featured TV Shows


Great British Railway Journeys S10E06

Posted By: Tavaz
Great British Railway Journeys S10E06

Great British Railway Journeys S10E06
MKV | 1280x720 | English | H264 @ 3262 kbps | AAC @ 317 kbps | 28 min 50 s | 739 MiB
Genre: Documentary

Michael Portillo takes to the tracks with a copy of George Bradshaw's Victorian Railway Guidebook. Portillo travels the length and breadth of the country to see how the railways changed us, and what of Bradshaw's Britain remains.

Great.British.Railway.Journeys.S10E10.720p.hdtv.x264-qpel[eztv].mkv (540.3 MB)
Great.British.Railway.Journeys.S10E09.720p.hdtv.x264-qpel[eztv].mkv (514.4 MB)
Great.British.Railway.Journeys.S10E06.720p.WEBRip.x264-KOMPOST[eztv].mkv (733.8 MB)
Great.British.Railway.Journeys.S10E07.720p.WEBRip.x264-KOMPOST[eztv].mkv (738.8 MB)
Great.British.Railway.Journeys.S10E08.720p.hdtv.x264-qpel[eztv].mkv (523.5 MB)



General
Unique ID : 132484051688965695542026174414404817127 (0x63AB800F15519FEF85633A4BAFE590E7)
Complete name : ./Great.British.Railway.Journeys.S10E07.720p.WEBRip.x264-KOMPOST[eztv].mkv
Format : Matroska
Format version : Version 4 / Version 2
File size : 739 MiB
Duration : 28 min 50 s
Overall bit rate : 3 582 kb/s
Encoded date : UTC 2019-02-12 20:59:48
Writing application : mkvmerge v27.0.0 ('Metropolis') 64-bit
Writing library : libebml v1.3.6 + libmatroska v1.4.9

Video
ID : 1
Format : AVC
Format/Info : Advanced Video Codec
Format profile : High@L4.1
Format settings : CABAC / 5 Ref Frames
Format settings, CABAC : Yes
Format settings, RefFrames : 5 frames
Codec ID : V_MPEG4/ISO/AVC
Duration : 28 min 50 s
Bit rate : 3 262 kb/s
Width : 1 280 pixels
Height : 720 pixels
Display aspect ratio : 16:9
Frame rate mode : Constant
Frame rate : 25.000 FPS
Color space : YUV
Chroma subsampling : 4:2:0
Bit depth : 8 bits
Scan type : Progressive
Bits/(Pixel*Frame) : 0.142
Stream size : 673 MiB (91%)
Writing library : x264 core 157 r2935 545de2f
Encoding settings : cabac=1 / ref=5 / deblock=1:-3:-3 / analyse=0x3:0x113 / me=umh / subme=8 / psy=1 / psy_rd=1.00:0.00 / mixed_ref=1 / me_range=16 / chroma_me=1 / trellis=2 / 8x8dct=1 / cqm=0 / deadzone=21,11 / fast_pskip=1 / chroma_qp_offset=-2 / threads=18 / lookahead_threads=3 / sliced_threads=0 / nr=0 / decimate=1 / interlaced=0 / bluray_compat=0 / constrained_intra=0 / bframes=3 / b_pyramid=2 / b_adapt=1 / b_bias=0 / direct=3 / weightb=1 / open_gop=0 / weightp=2 / keyint=250 / keyint_min=25 / scenecut=40 / intra_refresh=0 / rc_lookahead=50 / rc=crf / mbtree=1 / crf=18.0 / qcomp=0.60 / qpmin=0 / qpmax=69 / qpstep=4 / ip_ratio=1.40 / aq=1:0.80
Language : English
Default : Yes
Forced : No
Color range : Limited
Matrix coefficients : BT.709

Audio
ID : 2
Format : AAC
Format/Info : Advanced Audio Codec
Format profile : LC
Codec ID : A_AAC-2
Duration : 28 min 50 s
Bit rate : 317 kb/s
Channel(s) : 2 channels
Channel positions : Front: L R
Sampling rate : 48.0 kHz
Frame rate : 46.875 FPS (1024 SPF)
Compression mode : Lossy
Delay relative to video : 20 ms
Stream size : 65.5 MiB (9%)
Language : English
Default : Yes
Forced : No





Great British Railway Journeys S10E06


Great British Railway Journeys S10E06


Great British Railway Journeys S10E06


Great British Railway Journeys S10E06


Great British Railway Journeys S10E06

All episodes