Featured TV Shows


Hawaii Five-0 S09E02

Posted By: Tavaz
SD / WEBRip IMDb
Hawaii Five-0 S09E02

Hawaii Five-0 S09E02
WEBRip | MKV | 720x404 | German | H264 @ 1200 kbps | AC-3 @ 192 kbps | 39 min 39 s | 395 MiB
Genre: Action, Crime, Drama

Steve McGarrett returns home to Oahu, in order to find his father's killer. The governor offers him the chance to run his own task force (Five-0). Steve's team is joined by Chin Ho Kelly, Danny "Danno" Williams, and Kono Kalakaua.

S09E02 German.mkv (395.4 MB)



General
Unique ID : 127937606289032785078436566094828523432 (0x603FE2FE8B2A39988B34388D0C53CFA8)
Complete name : ./Es gibt kein Bier auf Hawaii S09E02 German/S09E02 German.mkv
Format : Matroska
Format version : Version 4 / Version 2
File size : 395 MiB
Duration : 39 min 39 s
Overall bit rate : 1 394 kb/s
Movie name : Hawaii.Five-0.S09E02.GERMAN.DUBBED.WEBRiP.x264-idTV
Encoded date : UTC 2019-02-02 09:54:42
Writing application : mkvmerge v19.0.0 ('Brave Captain') 64-bit
Writing library : libebml v1.3.5 + libmatroska v1.4.8

Video
ID : 1
Format : AVC
Format/Info : Advanced Video Codec
Format profile : High@L3.1
Format settings : CABAC / 5 Ref Frames
Format settings, CABAC : Yes
Format settings, RefFrames : 5 frames
Codec ID : V_MPEG4/ISO/AVC
Duration : 39 min 39 s
Bit rate : 1 200 kb/s
Width : 720 pixels
Height : 404 pixels
Display aspect ratio : 16:9
Frame rate mode : Constant
Frame rate : 25.000 FPS
Original frame rate : 23.976 (24000/1001) FPS
Color space : YUV
Chroma subsampling : 4:2:0
Bit depth : 8 bits
Scan type : Progressive
Bits/(Pixel*Frame) : 0.165
Stream size : 340 MiB (86%)
Writing library : x264 core 157 r2935M idTV
Encoding settings : cabac=1 / ref=5 / deblock=1:-2:-2 / analyse=0x3:0x133 / me=umh / subme=8 / psy=1 / psy_rd=1.00:0.00 / mixed_ref=1 / me_range=16 / chroma_me=1 / trellis=2 / 8x8dct=1 / cqm=0 / deadzone=21,11 / fast_pskip=0 / chroma_qp_offset=-2 / threads=12 / lookahead_threads=2 / sliced_threads=0 / nr=0 / decimate=1 / interlaced=0 / bluray_compat=0 / constrained_intra=0 / bframes=3 / b_pyramid=2 / b_adapt=1 / b_bias=0 / direct=3 / weightb=1 / open_gop=0 / weightp=2 / keyint=250 / keyint_min=23 / scenecut=40 / intra_refresh=0 / rc_lookahead=50 / rc=crf / mbtree=1 / crf=19.0 / qcomp=0.60 / qpmin=10 / qpmax=51 / qpstep=4 / ip_ratio=1.40 / aq=1:1.00
Language : English
Default : Yes
Forced : No
Color range : Limited
Color primaries : BT.709
Transfer characteristics : BT.709
Matrix coefficients : BT.709

Audio
ID : 2
Format : AC-3
Format/Info : Audio Coding 3
Format settings, Endianness : Big
Codec ID : A_AC3
Duration : 39 min 39 s
Bit rate mode : Constant
Bit rate : 192 kb/s
Channel(s) : 2 channels
Channel positions : Front: L R
Sampling rate : 48.0 kHz
Frame rate : 31.250 FPS (1536 SPF)
Bit depth : 16 bits
Compression mode : Lossy
Stream size : 54.5 MiB (14%)
Language : German
Service kind : Complete Main
Default : Yes
Forced : Yes





Hawaii Five-0 S09E02


Hawaii Five-0 S09E02


Hawaii Five-0 S09E02


Hawaii Five-0 S09E02


Hawaii Five-0 S09E02

All episodes