Featured TV Shows


Hawaii Five-0 S09E14

Posted By: Tavaz
1080p (FullHD) / WEBRip IMDb
Hawaii Five-0 S09E14

Hawaii Five-0 S09E14
WEB-DL | MKV | 1920x1080 | German / English | H264 @ 10318 kbps | AC-3 @ 192 kbps | 39 min 4 s | 3.05 GiB
Subtitles: English
Genre: Action, Krimi, Drama


Im Mittelpunkt der Serie steht der hochdekorierte ehemalige Marineoffizier Steve McGarrett, der von der Gouverneurin von Hawaii mit der Bildung einer Sondereinheit zur Bekämpfung des organisierten Verbrechens beauftragt wird. Er rekrutiert den ehemaligen Polizisten Chin Ho Kelly, der nach ungerechtfertigten Bestechungsvorwürfen die Polizei verlassen musste, den Polizisten Danny "Danno" Williams, der seiner geschiedenen Frau und deren Tochter von New Jersey nach Hawaii gefolgt ist, und die junge Polizistin Kona "Kono" Kalakaua, die gerade ihre Ausbildung beendet hat und die Cousine von Chin ist. Sie nennen sich Five-0 und arbeiten gemeinsam an einer Vielzahl unterschiedlicher Kriminalfälle.

hawaii.five-0.s09e14.german.dl.dubbed.1080p.web.h264-vodtv.mkv (3.1 GB)



General
Unique ID : 202085715669584656202938475170748109345 (0x98084B09868804E803396E72EDDF1221)
Complete name : ./hawaii.five-0.s09e14.german.dl.dubbed.1080p.web.h264-vodtv.mkv
Format : Matroska
Format version : Version 4 / Version 2
File size : 3.05 GiB
Duration : 39 min 4 s
Overall bit rate : 11.2 Mb/s
Movie name : Hawaii.Five-0.S09E14.GERMAN.DL.DUBBED.1080p.WEB.h264-VoDTv
Encoded date : UTC 2019-05-24 18:10:35
Writing application : mkvmerge v19.0.0 ('Brave Captain') 64-bit
Writing library : libebml v1.3.5 + libmatroska v1.4.8

Video
ID : 1
Format : AVC
Format/Info : Advanced Video Codec
Format profile : High@L4
Format settings : CABAC / 4 Ref Frames
Format settings, CABAC : Yes
Format settings, RefFrames : 4 frames
Codec ID : V_MPEG4/ISO/AVC
Duration : 39 min 3 s
Bit rate : 10.3 Mb/s
Width : 1 920 pixels
Height : 1 080 pixels
Display aspect ratio : 16:9
Frame rate mode : Constant
Frame rate : 25.000 FPS
Original frame rate : 23.976 (24000/1001) FPS
Color space : YUV
Chroma subsampling : 4:2:0
Bit depth : 8 bits
Scan type : Progressive
Bits/(Pixel*Frame) : 0.199
Stream size : 2.82 GiB (92%)
Default : Yes
Forced : No
Color range : Limited
Color primaries : BT.709
Transfer characteristics : BT.709
Matrix coefficients : BT.709

Audio #1
ID : 2
Format : AC-3
Format/Info : Audio Coding 3
Format settings, Endianness : Big
Codec ID : A_AC3
Duration : 39 min 4 s
Bit rate mode : Constant
Bit rate : 192 kb/s
Channel(s) : 2 channels
Channel positions : Front: L R
Sampling rate : 48.0 kHz
Frame rate : 31.250 FPS (1536 SPF)
Bit depth : 16 bits
Compression mode : Lossy
Stream size : 53.7 MiB (2%)
Language : German
Service kind : Complete Main
Default : Yes
Forced : Yes

Audio #2
ID : 3
Format : E-AC-3
Format/Info : Enhanced Audio Coding 3
Format settings, Endianness : Big
Codec ID : A_EAC3
Duration : 39 min 3 s
Bit rate mode : Constant
Bit rate : 640 kb/s
Channel(s) : 6 channels
Channel positions : Front: L C R, Side: L R, LFE
Sampling rate : 48.0 kHz
Frame rate : 187.500 FPS (256 SPF)
Compression mode : Lossy
Stream size : 186 MiB (6%)
Language : English
Service kind : Complete Main
Default : No
Forced : No

Text
ID : 4
Format : UTF-8
Codec ID : S_TEXT/UTF8
Codec ID/Info : UTF-8 Plain Text
Duration : 37 min 37 s
Bit rate : 102 b/s
Count of elements : 856
Stream size : 28.2 KiB (0%)
Language : English
Default : No
Forced : No





Hawaii Five-0 S09E14


Hawaii Five-0 S09E14


Hawaii Five-0 S09E14


Hawaii Five-0 S09E14


Hawaii Five-0 S09E14

All episodes