Featured TV Shows


Hawaii Five-0 S10E21

Posted By: Tavaz
1080p (FullHD) / WEB-DL IMDb
Hawaii Five-0 S10E21

Hawaii Five-0 S10E21
WEB-DL | MKV | 1920x1080 | English | H264 @ 12976 kbps | E-AC-3 @ 640 kbps | 43 min 43 s | 4.16 GiB
Subtitles: English
Genre: Action, Crime, Drama


Steve McGarrett returns home to Oahu, in order to find his father's killer. The governor offers him the chance to run his own task force (Five-0). Steve's team is joined by Chin Ho Kelly, Danny "Danno" Williams, and Kono Kalakaua.

41e4af80c8e04d2498bcf45c951c98ef.mkv (4.2 GB)



General
Unique ID : 171380824789506584024373347449592702655 (0x80EEBF094BAB2A99559467AFCF2566BF)
Complete name : ./41e4af80c8e04d2498bcf45c951c98ef.mkv
Format : Matroska
Format version : Version 4 / Version 2
File size : 4.16 GiB
Duration : 43 min 43 s
Overall bit rate : 13.6 Mb/s
Encoded date : UTC 2020-03-29 11:11:46
Writing application : mkvmerge v44.0.0 ('Domino') 64-bit
Writing library : libebml v1.3.10 + libmatroska v1.5.2

Video
ID : 1
Format : AVC
Format/Info : Advanced Video Codec
Format profile : High@L4
Format settings : CABAC / 4 Ref Frames
Format settings, CABAC : Yes
Format settings, RefFrames : 4 frames
Codec ID : V_MPEG4/ISO/AVC
Duration : 43 min 43 s
Bit rate : 13.0 Mb/s
Width : 1 920 pixels
Height : 1 080 pixels
Display aspect ratio : 16:9
Frame rate mode : Constant
Frame rate : 24.000 FPS
Color space : YUV
Chroma subsampling : 4:2:0
Bit depth : 8 bits
Scan type : Progressive
Bits/(Pixel*Frame) : 0.261
Stream size : 3.96 GiB (95%)
Default : Yes
Forced : No
Color range : Limited
Color primaries : BT.709
Transfer characteristics : BT.709
Matrix coefficients : BT.709

Audio
ID : 2
Format : E-AC-3
Format/Info : Enhanced Audio Coding 3
Format settings, Endianness : Big
Codec ID : A_EAC3
Duration : 43 min 43 s
Bit rate mode : Constant
Bit rate : 640 kb/s
Channel(s) : 6 channels
Channel positions : Front: L C R, Side: L R, LFE
Sampling rate : 48.0 kHz
Frame rate : 187.500 FPS (256 SPF)
Compression mode : Lossy
Stream size : 200 MiB (5%)
Language : English
Service kind : Complete Main
Default : Yes
Forced : No

Text #1
ID : 3
Format : UTF-8
Codec ID : S_TEXT/UTF8
Codec ID/Info : UTF-8 Plain Text
Duration : 43 min 14 s
Bit rate : 80 b/s
Count of elements : 817
Stream size : 25.5 KiB (0%)
Language : English
Default : No
Forced : No

Text #2
ID : 4
Format : UTF-8
Codec ID : S_TEXT/UTF8
Codec ID/Info : UTF-8 Plain Text
Duration : 43 min 14 s
Bit rate : 83 b/s
Count of elements : 877
Stream size : 26.4 KiB (0%)
Title : SDH
Language : English
Default : No
Forced : No





Hawaii Five-0 S10E21


Hawaii Five-0 S10E21


Hawaii Five-0 S10E21


Hawaii Five-0 S10E21


Hawaii Five-0 S10E21

All episodes