Index
# A B C D E F G H I J K L M N O P Q R S T U V W Y Z
Tags
Language
Tags

Featured TV Shows


Hawaii Five-0 S10E22

Posted By: Tavaz
1080p (FullHD) / WEB-DL IMDb
Hawaii Five-0 S10E22

Hawaii Five-0 S10E22
WEB-DL | MKV | 1920x1080 | English | H264 @ 13477 kbps | E-AC-3 @ 640 kbps | 43 min 39 s | 4.31 GiB
Subtitles: English
Genre: Action, Crime, Drama


Steve McGarrett returns home to Oahu, in order to find his father's killer. The governor offers him the chance to run his own task force (Five-0). Steve's team is joined by Chin Ho Kelly, Danny "Danno" Williams, and Kono Kalakaua.

2aa46217ebe449ed9c8be1b2affe2e1b.mkv (4.3 GB)



General
Unique ID : 289116423035797680549828009511746161142 (0xD981CC330B636810A5A18AEA99BA49F6)
Complete name : ./2aa46217ebe449ed9c8be1b2affe2e1b.mkv
Format : Matroska
Format version : Version 4 / Version 2
File size : 4.31 GiB
Duration : 43 min 39 s
Overall bit rate : 14.1 Mb/s
Encoded date : UTC 2020-04-04 14:27:13
Writing application : mkvmerge v44.0.0 ('Domino') 64-bit
Writing library : libebml v1.3.10 + libmatroska v1.5.2

Video
ID : 1
Format : AVC
Format/Info : Advanced Video Codec
Format profile : High@L4
Format settings : CABAC / 4 Ref Frames
Format settings, CABAC : Yes
Format settings, RefFrames : 4 frames
Codec ID : V_MPEG4/ISO/AVC
Duration : 43 min 39 s
Bit rate : 13.5 Mb/s
Width : 1 920 pixels
Height : 1 080 pixels
Display aspect ratio : 16:9
Frame rate mode : Constant
Frame rate : 24.000 FPS
Color space : YUV
Chroma subsampling : 4:2:0
Bit depth : 8 bits
Scan type : Progressive
Bits/(Pixel*Frame) : 0.271
Stream size : 4.11 GiB (95%)
Default : Yes
Forced : No
Color range : Limited
Color primaries : BT.709
Transfer characteristics : BT.709
Matrix coefficients : BT.709

Audio
ID : 2
Format : E-AC-3
Format/Info : Enhanced Audio Coding 3
Format settings, Endianness : Big
Codec ID : A_EAC3
Duration : 43 min 39 s
Bit rate mode : Constant
Bit rate : 640 kb/s
Channel(s) : 6 channels
Channel positions : Front: L C R, Side: L R, LFE
Sampling rate : 48.0 kHz
Frame rate : 187.500 FPS (256 SPF)
Compression mode : Lossy
Stream size : 200 MiB (5%)
Language : English
Service kind : Complete Main
Default : Yes
Forced : No

Text #1
ID : 3
Format : UTF-8
Codec ID : S_TEXT/UTF8
Codec ID/Info : UTF-8 Plain Text
Duration : 42 min 50 s
Bit rate : 59 b/s
Count of elements : 665
Stream size : 18.8 KiB (0%)
Language : English
Default : No
Forced : No

Text #2
ID : 4
Format : UTF-8
Codec ID : S_TEXT/UTF8
Codec ID/Info : UTF-8 Plain Text
Duration : 42 min 50 s
Bit rate : 62 b/s
Count of elements : 719
Stream size : 19.5 KiB (0%)
Title : SDH
Language : English
Default : No
Forced : No





Hawaii Five-0 S10E22


Hawaii Five-0 S10E22


Hawaii Five-0 S10E22


Hawaii Five-0 S10E22


Hawaii Five-0 S10E22

All episodes