Index
# A B C D E F G H I J K L M N O P Q R S T U V W Y Z
Tags
Language
Tags

Featured TV Shows


High Maintenance S02E09

Posted By: Tavaz
SD / WEB-DL IMDb
High Maintenance S02E09

High Maintenance S02E09
WEB-DL | MKV | 720x480 | English | H264 @ 864 kbps | E-AC-3 @ 640 kbps | 29 min 43 s | 326 MiB
Subtitles: English
Genre: Comedy

Jump into the daily routines of a diverse group of New Yorkers and how they light things up. “The Guy” is a nameless pot deliveryman whose client base includes an eccentric group of characters with neuroses as diverse as the city.

75b5369dc43d4d259ebc4d3c2c8f7d76.mkv (326.4 MB)



General
Unique ID : 115111803627588157865839087808471493720 (0x5699BA19C7D034A35EDBEB936C51EC58)
Complete name : ./75b5369dc43d4d259ebc4d3c2c8f7d76.mkv
Format : Matroska
Format version : Version 4 / Version 2
File size : 326 MiB
Duration : 29 min 43 s
Overall bit rate mode : Variable
Overall bit rate : 1 535 kb/s
Writing application : mkvmerge v21.0.0 ('Tardigrades Will Inherit The Earth') 64-bit
Writing library : libebml v1.3.5 + libmatroska v1.4.8

Video
ID : 1
Format : AVC
Format/Info : Advanced Video Codec
Format profile : Main@L3
Format settings : CABAC / 5 Ref Frames
Format settings, CABAC : Yes
Format settings, RefFrames : 5 frames
Codec ID : V_MPEG4/ISO/AVC
Duration : 29 min 43 s
Bit rate mode : Variable
Bit rate : 865 kb/s
Maximum bit rate : 2 400 kb/s
Width : 720 pixels
Height : 480 pixels
Display aspect ratio : 16:9
Frame rate mode : Constant
Frame rate : 23.976 (24000/1001) FPS
Color space : YUV
Chroma subsampling : 4:2:0
Bit depth : 8 bits
Scan type : Progressive
Bits/(Pixel*Frame) : 0.104
Stream size : 184 MiB (56%)
Default : Yes
Forced : No
Color range : Limited
Color primaries : BT.709
Transfer characteristics : BT.709
Matrix coefficients : BT.709
Statistics Tags Issue : mkvmerge v21.0.0 ('Tardigrades Will Inherit The Earth') 64-bit 2018-03-17 15:18:45 / mkvmerge v21.0.0 ('Tardigrades Will Inherit The Earth') 64-bit
FromStats_BitRate : 893168
FromStats_Duration : 00:29:43.657000000
FromStats_FrameCount : 42765
FromStats_StreamSize : 199138327

Audio
ID : 2
Format : E-AC-3
Format/Info : Enhanced Audio Coding 3
Format settings, Endianness : Big
Codec ID : A_EAC3
Duration : 29 min 43 s
Bit rate mode : Constant
Bit rate : 640 kb/s
Channel(s) : 6 channels
Channel positions : Front: L C R, Side: L R, LFE
Sampling rate : 48.0 kHz
Frame rate : 187.500 FPS (256 SPF)
Compression mode : Lossy
Delay relative to video : 3 ms
Stream size : 136 MiB (42%)
Language : English
Service kind : Complete Main
Default : Yes
Forced : No
Statistics Tags Issue : mkvmerge v21.0.0 ('Tardigrades Will Inherit The Earth') 64-bit 2018-03-17 15:18:45 / mkvmerge v21.0.0 ('Tardigrades Will Inherit The Earth') 64-bit
FromStats_BitRate : 640000
FromStats_Duration : 00:29:43.616000000
FromStats_FrameCount : 55738
FromStats_StreamSize : 142689280

Text #1
ID : 3
Format : UTF-8
Codec ID : S_TEXT/UTF8
Codec ID/Info : UTF-8 Plain Text
Language : English
Default : No
Forced : No
Statistics Tags Issue : mkvmerge v21.0.0 ('Tardigrades Will Inherit The Earth') 64-bit 2018-03-17 15:18:45 / mkvmerge v21.0.0 ('Tardigrades Will Inherit The Earth') 64-bit
FromStats_BitRate : 75
FromStats_Duration : 00:29:29.584000000
FromStats_FrameCount : 568
FromStats_StreamSize : 16630

Text #2
ID : 4
Format : UTF-8
Codec ID : S_TEXT/UTF8
Codec ID/Info : UTF-8 Plain Text
Title : SDH
Language : English
Default : No
Forced : No
Statistics Tags Issue : mkvmerge v21.0.0 ('Tardigrades Will Inherit The Earth') 64-bit 2018-03-17 15:18:45 / mkvmerge v21.0.0 ('Tardigrades Will Inherit The Earth') 64-bit
FromStats_BitRate : 82
FromStats_Duration : 00:29:34.084000000
FromStats_FrameCount : 629
FromStats_StreamSize : 18209





High Maintenance S02E09


High Maintenance S02E09


High Maintenance S02E09


High Maintenance S02E09


High Maintenance S02E09

All episodes