Featured TV Shows


Hold the Sunset S01E06

Posted By: Tavaz
1080p (FullHD) / WEB-DL IMDb
Hold the Sunset S01E06

Hold the Sunset S01E06
WEB-DL | MKV | 1912x1072 | English | H264 @ 5111 kbps | AAC @ 124 kbps | 28 min 37 s | 1.05 GiB
Genre: Comedy

Edith's dreams of retirement to the sun with her long-term suitor Phil are shattered when her 50-year-old son Roger arrives home, seeking to recapture his boyhood happiness.

1d4dae5f2761487b8ae22ebe3724ac37.mkv (1.0 GB)



General
Unique ID : 190661209939225211086176986740260419273 (0x8F70036A9C6DB7F1C68B3A2319A536C9)
Complete name : ./1d4dae5f2761487b8ae22ebe3724ac37.mkv
Format : Matroska
Format version : Version 4 / Version 2
File size : 1.05 GiB
Duration : 28 min 37 s
Overall bit rate : 5 239 kb/s
Encoded date : UTC 2018-04-03 15:18:55
Writing application : mkvmerge v21.0.0 ('Tardigrades Will Inherit The Earth') 64-bit
Writing library : libebml v1.3.5 + libmatroska v1.4.8

Video
ID : 2
Format : AVC
Format/Info : Advanced Video Codec
Format profile : High@L4
Format settings : CABAC / 4 Ref Frames
Format settings, CABAC : Yes
Format settings, RefFrames : 4 frames
Codec ID : V_MPEG4/ISO/AVC
Duration : 28 min 37 s
Bit rate : 5 112 kb/s
Width : 1 912 pixels
Height : 1 072 pixels
Display aspect ratio : 16:9
Frame rate mode : Constant
Frame rate : 25.000 FPS
Color space : YUV
Chroma subsampling : 4:2:0
Bit depth : 8 bits
Scan type : Progressive
Bits/(Pixel*Frame) : 0.100
Stream size : 1.02 GiB (98%)
Language : English
Default : Yes
Forced : No
Color range : Limited
Color primaries : BT.709
Transfer characteristics : BT.709
Matrix coefficients : BT.709

Audio
ID : 1
Format : AAC
Format/Info : Advanced Audio Codec
Format profile : LC
Codec ID : A_AAC-2
Duration : 28 min 37 s
Bit rate : 125 kb/s
Channel(s) : 2 channels
Channel positions : Front: L R
Sampling rate : 48.0 kHz
Frame rate : 46.875 FPS (1024 SPF)
Compression mode : Lossy
Delay relative to video : -40 ms
Stream size : 25.5 MiB (2%)
Language : English
Default : Yes
Forced : No





Hold the Sunset S01E06


Hold the Sunset S01E06


Hold the Sunset S01E06


Hold the Sunset S01E06


Hold the Sunset S01E06

All episodes