Homeland - Caccia alla spia S07E04

Posted By: Tavaz
SD / WEB-DL IMDb
Homeland - Caccia alla spia S07E04

Homeland - Caccia alla spia S07E04
WEB-DL | MKV | 720x404 | Italian | H264 @ 1067 kbps | AAC @ 111 kbps | 45 min 33 s | 400 MiB
Subtitles: Italian
Genre: Dramma

Nicholas Brody, un sergente dei Marine ritenuto scomparso in azione nella guerra d'Iraq, viene liberato dopo otto anni di prigionia. Una volta ritornato a casa, l'intera nazione lo elegge immediatamente ad eroe di guerra. Carrie Mathison, un'analista della CIA, è l'unica a credere che in realtà egli rappresenti una seria minaccia per il Paese: identifica infatti in Brody uno sconosciuto prigioniero di guerra americano che ha saputo essersi convertito all'Islam ed essere passato al servizio di al-Qaida. Rendendosi conto delle difficoltà di provare la sua tesi e di convincere i suoi superiori a mettere sotto sorveglianza il sergente, Carrie inizia ad indagare segretamente sulla figura di Nicholas Brody, per prevenire un altro attacco terroristico sul suolo americano.

Homeland.7x04.Fake.News.ITA.WEBMux.x264-NovaRip.mkv (399.7 MB)



General
Unique ID : 3386348859888332952929612457684526234 (0x28C2FE3A1D0AD9A94721FA60270649A)
Complete name : ./Homeland.7x04.Fake.News.ITA.WEBMux.x264-NovaRip.mkv
Format : Matroska
Format version : Version 2
File size : 400 MiB
Duration : 45 min 33 s
Overall bit rate : 1 227 kb/s
Encoded date : UTC 2018-05-15 19:12:13
Writing application : mkvmerge v8.5.2 ('Crosses') 64bit
Writing library : libebml v1.3.3 + libmatroska v1.4.4

Video
ID : 1
Format : AVC
Format/Info : Advanced Video Codec
Format profile : High@L3.1
Format settings : CABAC / 6 Ref Frames
Format settings, CABAC : Yes
Format settings, RefFrames : 6 frames
Codec ID : V_MPEG4/ISO/AVC
Duration : 45 min 33 s
Bit rate : 1 067 kb/s
Width : 720 pixels
Height : 404 pixels
Display aspect ratio : 16:9
Frame rate mode : Constant
Frame rate : 25.000 FPS
Original frame rate : 23.976 (24000/1001) FPS
Color space : YUV
Chroma subsampling : 4:2:0
Bit depth : 8 bits
Scan type : Progressive
Bits/(Pixel*Frame) : 0.147
Stream size : 363 MiB (91%)
Writing library : x264 core 133 r2334 a3ac64b
Encoding settings : cabac=1 / ref=6 / deblock=1:-2:-2 / analyse=0x3:0x133 / me=umh / subme=7 / psy=1 / psy_rd=1.00:0.00 / mixed_ref=1 / me_range=16 / chroma_me=1 / trellis=2 / 8x8dct=1 / cqm=0 / deadzone=21,11 / fast_pskip=0 / chroma_qp_offset=-2 / threads=24 / lookahead_threads=3 / sliced_threads=0 / nr=0 / decimate=1 / interlaced=0 / bluray_compat=0 / constrained_intra=0 / bframes=5 / b_pyramid=2 / b_adapt=2 / b_bias=0 / direct=3 / weightb=1 / open_gop=0 / weightp=2 / keyint=250 / keyint_min=23 / scenecut=40 / intra_refresh=0 / rc_lookahead=40 / rc=2pass / mbtree=1 / bitrate=1067 / ratetol=1.0 / qcomp=0.60 / qpmin=0 / qpmax=69 / qpstep=4 / cplxblur=20.0 / qblur=0.5 / ip_ratio=1.40 / aq=1:1.00
Language : English
Default : Yes
Forced : Yes

Audio
ID : 2
Format : AAC
Format/Info : Advanced Audio Codec
Format profile : LC
Codec ID : A_AAC-2
Duration : 45 min 33 s
Bit rate : 112 kb/s
Channel(s) : 2 channels
Channel positions : Front: L R
Sampling rate : 48.0 kHz
Frame rate : 46.875 FPS (1024 SPF)
Compression mode : Lossy
Delay relative to video : 9 ms
Stream size : 36.5 MiB (9%)
Title : ITA
Language : Italian
Default : Yes
Forced : Yes

Text
ID : 3
Format : UTF-8
Codec ID : S_TEXT/UTF8
Codec ID/Info : UTF-8 Plain Text
Duration : 28 min 12 s
Bit rate : 3 b/s
Count of elements : 17
Stream size : 690 Bytes (0%)
Title : ITA - Forced
Language : Italian
Default : Yes
Forced : Yes





Homeland - Caccia alla spia S07E04


Homeland - 			  		 	 	  		 	    	 			   		  	   		  	   		 	    	 			   		   	  		      			     	 			   			     		 	 				 Caccia alla spia S07E04


Homeland - Caccia alla spia S07E04


Homeland - Caccia alla spia S07E04


Homeland - Caccia alla spia S07E04

All episodes