Featured TV Shows


House of Cards S06E08

Posted By: Tavaz
SD / WEBRip IMDb
House of Cards S06E08

House of Cards S06E08
WEBRip | MOV | 720x368 | English | H264 @ 1100 kbps | AAC @ 256 kbps | 55 min 12 s | 533 MiB
Genre: Drama

Set in present day Washington, D.C., House of Cards is the story of Frank Underwood, a ruthless and cunning politician, and his wife Claire who will stop at nothing to conquer everything. This wicked political drama penetrates the shadowy world of greed, sex and corruption in modern D.C.

House of Cards is an adaptation of a previous BBC miniseries of the same name, which is based on the novel by Michael Dobbs.

House.of.Cards.S06E08.Chapter.73.WEBRip.x264-ION10.mp4 (532.6 MB)



General
Complete name : ./House.of.Cards.S06E08.Chapter.73.WEBRip.x264-ION10.mp4
Format : MPEG-4
Format profile : Base Media
Codec ID : isom (isom/iso2/avc1/mp41)
File size : 533 MiB
Duration : 55 min 12 s
Overall bit rate : 1 349 kb/s
Writing application : Lavf57.72.100

Video
ID : 1
Format : AVC
Format/Info : Advanced Video Codec
Format profile : High@L3.1
Format settings : CABAC / 5 Ref Frames
Format settings, CABAC : Yes
Format settings, RefFrames : 5 frames
Codec ID : avc1
Codec ID/Info : Advanced Video Coding
Duration : 55 min 11 s
Bit rate : 1 100 kb/s
Width : 720 pixels
Height : 368 pixels
Display aspect ratio : 2.000
Frame rate mode : Constant
Frame rate : 23.976 (24000/1001) FPS
Color space : YUV
Chroma subsampling : 4:2:0
Bit depth : 8 bits
Scan type : Progressive
Bits/(Pixel*Frame) : 0.173
Stream size : 429 MiB (81%)
Writing library : x264 core 148 r2748 97eaef2
Encoding settings : cabac=1 / ref=5 / deblock=1:-1:-1 / analyse=0x3:0x113 / me=umh / subme=9 / psy=1 / psy_rd=1.00:0.15 / mixed_ref=1 / me_range=16 / chroma_me=1 / trellis=2 / 8x8dct=1 / cqm=0 / deadzone=21,11 / fast_pskip=1 / chroma_qp_offset=-3 / threads=24 / lookahead_threads=2 / sliced_threads=0 / nr=0 / decimate=1 / interlaced=0 / bluray_compat=0 / constrained_intra=0 / bframes=3 / b_pyramid=2 / b_adapt=2 / b_bias=0 / direct=3 / weightb=1 / open_gop=0 / weightp=2 / keyint=250 / keyint_min=23 / scenecut=40 / intra_refresh=0 / rc_lookahead=50 / rc=abr / mbtree=1 / bitrate=1100 / ratetol=1.0 / qcomp=0.60 / qpmin=0 / qpmax=69 / qpstep=4 / ip_ratio=1.40 / aq=1:1.00

Audio
ID : 2
Format : AAC
Format/Info : Advanced Audio Codec
Format profile : LC
Codec ID : mp4a-40-2
Duration : 55 min 12 s
Duration_LastFrame : -11 ms
Bit rate mode : Constant
Bit rate : 256 kb/s
Channel(s) : 2 channels
Channel positions : Front: L R
Sampling rate : 48.0 kHz
Frame rate : 46.875 FPS (1024 SPF)
Compression mode : Lossy
Stream size : 101 MiB (19%)
Title : English
Language : English
Default : Yes
Alternate group : 1





House of Cards S06E08


House of Cards S06E08


House of Cards S06E08


House of Cards S06E08


House of Cards S06E08

All episodes