Featured TV Shows


House of Cards S32E10

Posted By: Tavaz
720p (HD) / HDTV IMDb
House of Cards S32E10

House of Cards S32E10
HDTV | MKV | 1280x720 | English | H264 @ 4273 kbps | AC-3 @ 384 kbps | 41 min 13 s | 1.34 GiB
Genre: Drama

Set in present day Washington, D.C., House of Cards is the story of Frank Underwood, a ruthless and cunning politician, and his wife Claire who will stop at nothing to conquer everything. This wicked political drama penetrates the shadowy world of greed, sex and corruption in modern D.C.

House of Cards is an adaptation of a previous BBC miniseries of the same name, which is based on the novel by Michael Dobbs.

The.Challenge.S32E10.Final.Reckoning.Redemption.House.of.Cards.720p.HDTV.x264-CRiMSON.mkv (1.3 GB)



General
Unique ID : 251204478861282039141969203564214670217 (0xBCFC390970FB5E7D998C2E40EE82D389)
Complete name : ./The.Challenge.S32E10.Final.Reckoning.Redemption.House.of.Cards.720p.HDTV.x264-CRiMSON.mkv
Format : Matroska
Format version : Version 4 / Version 2
File size : 1.34 GiB
Duration : 41 min 13 s
Overall bit rate : 4 660 kb/s
Encoded date : UTC 2018-09-12 04:43:20
Writing application : mkvmerge v9.0.1 ('Obstacles') 64bit
Writing library : libebml v1.3.3 + libmatroska v1.4.4

Video
ID : 2
Format : AVC
Format/Info : Advanced Video Codec
Format profile : High@L4.1
Format settings : CABAC / 5 Ref Frames
Format settings, CABAC : Yes
Format settings, RefFrames : 5 frames
Codec ID : V_MPEG4/ISO/AVC
Duration : 41 min 13 s
Bit rate : 4 274 kb/s
Width : 1 280 pixels
Height : 720 pixels
Display aspect ratio : 16:9
Frame rate mode : Constant
Frame rate : 23.976 (24000/1001) FPS
Color space : YUV
Chroma subsampling : 4:2:0
Bit depth : 8 bits
Scan type : Progressive
Bits/(Pixel*Frame) : 0.193
Stream size : 1.23 GiB (92%)
Writing library : x264 core 155 r2901 7d0ff22
Encoding settings : cabac=1 / ref=5 / deblock=1:0:0 / analyse=0x3:0x113 / me=umh / subme=8 / psy=1 / psy_rd=1.00:0.15 / mixed_ref=1 / me_range=16 / chroma_me=1 / trellis=2 / 8x8dct=1 / cqm=0 / deadzone=21,11 / fast_pskip=1 / chroma_qp_offset=-3 / threads=12 / lookahead_threads=2 / sliced_threads=0 / nr=0 / decimate=1 / interlaced=0 / bluray_compat=0 / constrained_intra=0 / bframes=3 / b_pyramid=2 / b_adapt=2 / b_bias=0 / direct=3 / weightb=1 / open_gop=0 / weightp=2 / keyint=240 / keyint_min=23 / scenecut=40 / intra_refresh=0 / rc_lookahead=50 / rc=crf / mbtree=1 / crf=20.0 / qcomp=0.60 / qpmin=0 / qpmax=69 / qpstep=4 / vbv_maxrate=62500 / vbv_bufsize=78125 / crf_max=0.0 / nal_hrd=none / filler=0 / ip_ratio=1.40 / aq=1:1.00
Language : English
Default : Yes
Forced : No
Color range : Limited
Matrix coefficients : BT.709

Audio
ID : 1
Format : AC-3
Format/Info : Audio Coding 3
Format settings, Endianness : Big
Codec ID : A_AC3
Duration : 41 min 13 s
Bit rate mode : Constant
Bit rate : 384 kb/s
Channel(s) : 2 channels
Channel positions : Front: L R
Sampling rate : 48.0 kHz
Frame rate : 31.250 FPS (1536 SPF)
Bit depth : 16 bits
Compression mode : Lossy
Delay relative to video : 28 ms
Stream size : 113 MiB (8%)
Service kind : Complete Main
Default : Yes
Forced : No





House of Cards S32E10


House of Cards S32E10


House of Cards S32E10


House of Cards S32E10


House of Cards S32E10

All episodes