Featured TV Shows


Ice S02E04

Posted By: Tavaz
720p (HD) / WEB-DL IMDb
Ice S02E04

Ice S02E04
WEB-DL | MKV | 1280x720 | English | H264 | AC-3 @ 192 kbps | 54 min 58 s | 1.58 GiB
Subtitles: English
Genre: Crime, Drama

A diamond dealer navigates the culturally diverse and treacherous world of the diamond business.

84718dd6ecde427ba2260fdc698d739a.mkv (1.6 GB)



General
Complete name : ./84718dd6ecde427ba2260fdc698d739a.mkv
Format : Matroska
Format version : Version 4 / Version 2
File size : 1.58 GiB
Duration : 54 min 58 s
Overall bit rate : 4 119 kb/s
Encoded date : UTC 2018-04-19 12:06:50
Writing application : mkvmerge v22.0.0 ('At The End Of The World') 64-bit
Writing library : libebml v1.3.5 + libmatroska v1.4.8

Video
ID : 1
Format : AVC
Format/Info : Advanced Video Codec
Format profile : High@L3.1
Format settings : CABAC / 4 Ref Frames
Format settings, CABAC : Yes
Format settings, RefFrames : 4 frames
Codec ID : V_MPEG4/ISO/AVC
Duration : 54 min 58 s
Bit rate mode : Constant
Bit rate : 4 000 kb/s / 4 000 kb/s
Width : 1 280 pixels
Height : 720 pixels
Display aspect ratio : 16:9
Frame rate mode : Constant
Frame rate : 23.976 (24000/1001) FPS
Color space : YUV
Chroma subsampling : 4:2:0
Bit depth : 8 bits
Scan type : Progressive
Bits/(Pixel*Frame) : 0.181
Stream size : 1.51 GiB (95%)
Writing library : x264 core 148
Encoding settings : cabac=1 / ref=4 / deblock=1:0:0 / analyse=0x3:0x113 / me=hex / subme=9 / psy=1 / psy_rd=1.00:0.00 / mixed_ref=1 / me_range=16 / chroma_me=1 / trellis=2 / 8x8dct=1 / cqm=0 / deadzone=21,11 / fast_pskip=1 / chroma_qp_offset=-2 / threads=12 / lookahead_threads=1 / sliced_threads=0 / nr=0 / decimate=1 / interlaced=0 / bluray_compat=0 / constrained_intra=0 / bframes=3 / b_pyramid=2 / b_adapt=1 / b_bias=0 / direct=1 / weightb=1 / open_gop=1 / weightp=2 / keyint=9000000 / keyint_min=4500001 / scenecut=40 / intra_refresh=0 / rc_lookahead=96 / rc=2pass / mbtree=1 / bitrate=4000 / ratetol=1.0 / qcomp=0.60 / qpmin=0 / qpmax=69 / qpstep=4 / cplxblur=20.0 / qblur=0.5 / vbv_maxrate=4000 / vbv_bufsize=2000 / nal_hrd=cbr / filler=1 / ip_ratio=1.40 / aq=1:1.00
Language : English
Default : Yes
Forced : No

Audio
ID : 2
Format : AC-3
Format/Info : Audio Coding 3
Format settings, Endianness : Big
Codec ID : A_AC3
Duration : 54 min 58 s
Bit rate mode : Constant
Bit rate : 192 kb/s
Channel(s) : 2 channels
Channel positions : Front: L R
Sampling rate : 48.0 kHz
Frame rate : 31.250 FPS (1536 SPF)
Bit depth : 16 bits
Compression mode : Lossy
Stream size : 75.5 MiB (5%)
Language : English
Service kind : Complete Main
Default : Yes
Forced : No

Text
ID : 3
Format : UTF-8
Codec ID : S_TEXT/UTF8
Codec ID/Info : UTF-8 Plain Text
Duration : 53 min 57 s
Bit rate : 70 b/s
Count of elements : 1155
Stream size : 27.8 KiB (0%)
Language : English
Default : No
Forced : No





Ice S02E04


Ice S02E04


Ice S02E04


Ice S02E04


Ice S02E04

All episodes