Featured TV Shows


Ice S02E08

Posted By: Tavaz
1080p (FullHD) / WEB-DL IMDb
Ice S02E08

Ice S02E08
WEB-DL | MKV | 1920x1080 | English | H264 @ 9510 kbps | E-AC-3 @ 640 kbps | 51 min 13 s | 3.63 GiB
Subtitles: English
Genre: Crime, Drama


A diamond dealer navigates the culturally diverse and treacherous world of the diamond business.

cd640a3a62714fada1f607bdcbaacdd3.mkv (3.6 GB)



General
Unique ID : 78886910125747028472728887878443943146 (0x3B5910F54F671186319D3DD8709D44EA)
Complete name : ./cd640a3a62714fada1f607bdcbaacdd3.mkv
Format : Matroska
Format version : Version 4 / Version 2
File size : 3.63 GiB
Duration : 51 min 13 s
Overall bit rate : 10.2 Mb/s
Encoded date : UTC 2019-06-06 17:40:58
Writing application : mkvmerge v30.1.0 ('Forever And More') 64-bit
Writing library : libebml v1.3.6 + libmatroska v1.4.9

Video
ID : 1
Format : AVC
Format/Info : Advanced Video Codec
Format profile : High@L4
Format settings : CABAC / 4 Ref Frames
Format settings, CABAC : Yes
Format settings, RefFrames : 4 frames
Codec ID : V_MPEG4/ISO/AVC
Duration : 51 min 13 s
Bit rate mode : Constant
Bit rate : 9 511 kb/s
Nominal bit rate : 10 000 kb/s
Width : 1 920 pixels
Height : 1 080 pixels
Display aspect ratio : 16:9
Frame rate mode : Constant
Frame rate : 23.976 (24000/1001) FPS
Color space : YUV
Chroma subsampling : 4:2:0
Bit depth : 8 bits
Scan type : Progressive
Bits/(Pixel*Frame) : 0.191
Stream size : 3.40 GiB (94%)
Default : Yes
Forced : No
Color range : Limited
Color primaries : BT.709
Transfer characteristics : BT.709
Matrix coefficients : BT.709

Audio
ID : 2
Format : E-AC-3
Format/Info : Enhanced Audio Coding 3
Format settings, Endianness : Big
Codec ID : A_EAC3
Duration : 51 min 13 s
Bit rate mode : Constant
Bit rate : 640 kb/s
Channel(s) : 6 channels
Channel positions : Front: L C R, Side: L R, LFE
Sampling rate : 48.0 kHz
Frame rate : 187.500 FPS (256 SPF)
Compression mode : Lossy
Stream size : 234 MiB (6%)
Language : English
Service kind : Complete Main
Default : Yes
Forced : No

Text
ID : 3
Format : UTF-8
Codec ID : S_TEXT/UTF8
Codec ID/Info : UTF-8 Plain Text
Duration : 50 min 9 s
Bit rate : 63 b/s
Count of elements : 902
Stream size : 23.3 KiB (0%)
Title : SDH
Language : English
Default : No
Forced : No





Ice S02E08


Ice S02E08


Ice S02E08


Ice S02E08


Ice S02E08

All episodes