In Contempt S01E10

Posted By: Tavaz
1080p (FullHD) / WEBRip IMDb
In Contempt S01E10

In Contempt S01E10
WEBRip | MKV | 1920x1080 | English | H264 @ 4515 kbps | AAC @ 127 kbps | 41 min 30 s | 1.35 GiB
Genre: Drama

The procedural is set in the fast-paced world of a legal aid office in New York City and follows Gwen Sullivan, an opinionated attorney whose passion for her job and clients make her arguably the most talented public defender in her district.

5d4647321cc94d1485bf6ae8b8be763e.mkv (1.3 GB)



General
Unique ID : 178266729344115237918003638081827873594 (0x861CEC57B2F20933141B07659CBBA33A)
Complete name : ./5d4647321cc94d1485bf6ae8b8be763e.mkv
Format : Matroska
Format version : Version 4 / Version 2
File size : 1.35 GiB
Duration : 41 min 30 s
Overall bit rate : 4 647 kb/s
Encoded date : UTC 2018-06-13 12:07:01
Writing application : mkvmerge v20.0.0 ('I Am The Sun') 64-bit
Writing library : libebml v1.3.5 + libmatroska v1.4.8

Video
ID : 1
Format : AVC
Format/Info : Advanced Video Codec
Format profile : High@L4
Format settings : CABAC / 4 Ref Frames
Format settings, CABAC : Yes
Format settings, RefFrames : 4 frames
Codec ID : V_MPEG4/ISO/AVC
Duration : 41 min 30 s
Bit rate : 4 516 kb/s
Width : 1 920 pixels
Height : 1 080 pixels
Display aspect ratio : 16:9
Frame rate mode : Constant
Frame rate : 23.819 FPS
Color space : YUV
Chroma subsampling : 4:2:0
Bit depth : 8 bits
Scan type : Progressive
Bits/(Pixel*Frame) : 0.091
Stream size : 1.31 GiB (97%)
Writing library : x264 core 148
Encoding settings : cabac=1 / ref=4 / deblock=1:0:0 / analyse=0x3:0x113 / me=umh / subme=10 / psy=1 / psy_rd=1.00:0.15 / mixed_ref=1 / me_range=32 / chroma_me=1 / trellis=2 / 8x8dct=1 / cqm=0 / deadzone=21,11 / fast_pskip=1 / chroma_qp_offset=-3 / threads=24 / lookahead_threads=6 / sliced_threads=0 / nr=0 / decimate=1 / interlaced=0 / bluray_compat=0 / constrained_intra=0 / bframes=3 / b_pyramid=0 / b_adapt=2 / b_bias=0 / direct=3 / weightb=1 / open_gop=0 / weightp=2 / keyint=48 / keyint_min=4 / scenecut=0 / intra_refresh=0 / rc_lookahead=48 / rc=crf / mbtree=1 / crf=19.0 / qcomp=0.75 / qpmin=10 / qpmax=51 / qpstep=4 / vbv_maxrate=5000 / vbv_bufsize=10000 / crf_max=0.0 / nal_hrd=none / filler=0 / ip_ratio=1.40 / aq=1:0.80
Default : Yes
Forced : No

Audio
ID : 2
Format : AAC
Format/Info : Advanced Audio Codec
Format profile : LC
Codec ID : A_AAC-2
Duration : 41 min 30 s
Bit rate : 128 kb/s
Channel(s) : 2 channels
Channel positions : Front: L R
Sampling rate : 48.0 kHz
Frame rate : 46.875 FPS (1024 SPF)
Compression mode : Lossy
Delay relative to video : -41 ms
Stream size : 38.0 MiB (3%)
Default : Yes
Forced : No





In Contempt S01E10


In Contempt S01E10


In Contempt S01E10


In Contempt S01E10


In Contempt S01E10

All episodes