Featured TV Shows


Inside Edge S02E01

Posted By: Tavaz
720p (HD) / WEB-DL IMDb
Inside Edge S02E01

Inside Edge S02E01
WEB-DL | MKV | 1280x720 | Hindi | H264 @ 4184 kbps | E-AC-3 @ 640 kbps | 42 min 34 s | 1.44 GiB
Subtitles: English
Genre: Drama


The story of the Mumbai Mavericks, a T20 cricket franchise playing in the Powerplay League. Set in a landscape of conflicting interests, where selfishness is almost a virtue, where sex, money, and power are mere means to an end, Inside Edge is a story that pulls no punches, minces no words, and takes no prisoners. Come witness the game behind the game.

0f03cbc301a541689eff41c201c8f912.mkv (1.4 GB)



General
Unique ID : 314044277612230431470066268251158169811 (0xEC42BA51DDD9D7F8FCC7497F392348D3)
Complete name : ./0f03cbc301a541689eff41c201c8f912.mkv
Format : Matroska
Format version : Version 4 / Version 2
File size : 1.44 GiB
Duration : 42 min 34 s
Overall bit rate : 4 827 kb/s
Encoded date : UTC 2019-12-06 09:01:44
Writing application : mkvmerge v19.0.0 ('Brave Captain') 64-bit
Writing library : libebml v1.3.5 + libmatroska v1.4.8

Video
ID : 1
Format : AVC
Format/Info : Advanced Video Codec
Format profile : High@L3.1
Format settings : CABAC / 4 Ref Frames
Format settings, CABAC : Yes
Format settings, RefFrames : 4 frames
Codec ID : V_MPEG4/ISO/AVC
Duration : 42 min 34 s
Bit rate mode : Constant
Bit rate : 4 185 kb/s
Nominal bit rate : 6 000 kb/s
Width : 1 280 pixels
Height : 720 pixels
Display aspect ratio : 16:9
Frame rate mode : Constant
Frame rate : 25.000 FPS
Color space : YUV
Chroma subsampling : 4:2:0
Bit depth : 8 bits
Scan type : Progressive
Bits/(Pixel*Frame) : 0.182
Stream size : 1.24 GiB (87%)
Default : Yes
Forced : No
Color range : Limited
Color primaries : BT.709
Transfer characteristics : BT.709
Matrix coefficients : BT.709

Audio
ID : 2
Format : E-AC-3
Format/Info : Enhanced Audio Coding 3
Format settings, Endianness : Big
Codec ID : A_EAC3
Duration : 42 min 34 s
Bit rate mode : Constant
Bit rate : 640 kb/s
Channel(s) : 6 channels
Channel positions : Front: L C R, Side: L R, LFE
Sampling rate : 48.0 kHz
Frame rate : 187.500 FPS (256 SPF)
Compression mode : Lossy
Stream size : 195 MiB (13%)
Language : Hindi
Service kind : Complete Main
Default : Yes
Forced : No

Text
ID : 3
Format : UTF-8
Codec ID : S_TEXT/UTF8
Codec ID/Info : UTF-8 Plain Text
Duration : 40 min 19 s
Bit rate : 70 b/s
Count of elements : 641
Stream size : 21.0 KiB (0%)
Title : English
Language : English
Default : Yes
Forced : No





Inside Edge S02E01


Inside Edge S02E01


Inside Edge S02E01


Inside Edge S02E01


Inside Edge S02E01

All episodes