Featured TV Shows


Inside Edge S02E03

Posted By: Tavaz
1080p (FullHD) / WEB-DL IMDb
Inside Edge S02E03

Inside Edge S02E03
WEB-DL | MKV | 1920x1080 | Hindi | H264 @ 9254 kbps | E-AC-3 @ 640 kbps | 40 min 4 s | 2.77 GiB
Subtitles: English
Genre: Drama


The story of the Mumbai Mavericks, a T20 cricket franchise playing in the Powerplay League. Set in a landscape of conflicting interests, where selfishness is almost a virtue, where sex, money, and power are mere means to an end, Inside Edge is a story that pulls no punches, minces no words, and takes no prisoners. Come witness the game behind the game.

5356bcfb5cd244288eaa5617b2743437.mkv (2.8 GB)



General
Unique ID : 194320354895212832106663251886293337756 (0x9230BD310C4FE16097981FCF5A87469C)
Complete name : ./5356bcfb5cd244288eaa5617b2743437.mkv
Format : Matroska
Format version : Version 4 / Version 2
File size : 2.77 GiB
Duration : 40 min 4 s
Overall bit rate : 9 897 kb/s
Encoded date : UTC 2019-12-05 22:45:11
Writing application : mkvmerge v35.0.0 ('All The Love In The World') 64-bit
Writing library : libebml v1.3.9 + libmatroska v1.5.2

Video
ID : 1
Format : AVC
Format/Info : Advanced Video Codec
Format profile : High@L4
Format settings : CABAC / 4 Ref Frames
Format settings, CABAC : Yes
Format settings, RefFrames : 4 frames
Codec ID : V_MPEG4/ISO/AVC
Duration : 40 min 4 s
Bit rate mode : Constant
Bit rate : 9 254 kb/s
Nominal bit rate : 10 000 kb/s
Width : 1 920 pixels
Height : 1 080 pixels
Display aspect ratio : 16:9
Frame rate mode : Constant
Frame rate : 25.000 FPS
Color space : YUV
Chroma subsampling : 4:2:0
Bit depth : 8 bits
Scan type : Progressive
Bits/(Pixel*Frame) : 0.179
Stream size : 2.59 GiB (94%)
Default : Yes
Forced : No
Color range : Limited
Color primaries : BT.709
Transfer characteristics : BT.709
Matrix coefficients : BT.709

Audio
ID : 2
Format : E-AC-3
Format/Info : Enhanced Audio Coding 3
Format settings, Endianness : Big
Codec ID : A_EAC3
Duration : 40 min 4 s
Bit rate mode : Constant
Bit rate : 640 kb/s
Channel(s) : 6 channels
Channel positions : Front: L C R, Side: L R, LFE
Sampling rate : 48.0 kHz
Frame rate : 187.500 FPS (256 SPF)
Compression mode : Lossy
Stream size : 183 MiB (6%)
Title : BonsaiHD.Com
Language : Hindi
Service kind : Complete Main
Default : Yes
Forced : No

Text
ID : 3
Format : UTF-8
Codec ID : S_TEXT/UTF8
Codec ID/Info : UTF-8 Plain Text
Duration : 37 min 32 s
Bit rate : 55 b/s
Count of elements : 497
Stream size : 15.3 KiB (0%)
Title : BonsaiHD.Com
Language : English
Default : Yes
Forced : No





Inside Edge S02E03


Inside Edge S02E03


Inside Edge S02E03


Inside Edge S02E03


Inside Edge S02E03

All episodes