Featured TV Shows


Inside Edge S02E05

Posted By: Tavaz
1080p (FullHD) / WEB-DL IMDb
Inside Edge S02E05

Inside Edge S02E05
WEB-DL | MKV | 1920x1080 | Hindi | H264 @ 8680 kbps | E-AC-3 @ 640 kbps | 49 min 3 s | 3.19 GiB
Subtitles: English
Genre: Drama


The story of the Mumbai Mavericks, a T20 cricket franchise playing in the Powerplay League. Set in a landscape of conflicting interests, where selfishness is almost a virtue, where sex, money, and power are mere means to an end, Inside Edge is a story that pulls no punches, minces no words, and takes no prisoners. Come witness the game behind the game.

a065863937c643c2aa865cbc214d2b8f.mkv (3.2 GB)



General
Unique ID : 99572629643241949387205891075912848612 (0x4AE8FDAC16F4A3203C245BB6968154E4)
Complete name : ./a065863937c643c2aa865cbc214d2b8f.mkv
Format : Matroska
Format version : Version 4 / Version 2
File size : 3.19 GiB
Duration : 49 min 3 s
Overall bit rate : 9 323 kb/s
Encoded date : UTC 2019-12-05 22:48:57
Writing application : mkvmerge v35.0.0 ('All The Love In The World') 64-bit
Writing library : libebml v1.3.9 + libmatroska v1.5.2

Video
ID : 1
Format : AVC
Format/Info : Advanced Video Codec
Format profile : High@L4
Format settings : CABAC / 4 Ref Frames
Format settings, CABAC : Yes
Format settings, RefFrames : 4 frames
Codec ID : V_MPEG4/ISO/AVC
Duration : 49 min 3 s
Bit rate mode : Constant
Bit rate : 8 681 kb/s
Nominal bit rate : 10 000 kb/s
Width : 1 920 pixels
Height : 1 080 pixels
Display aspect ratio : 16:9
Frame rate mode : Constant
Frame rate : 25.000 FPS
Color space : YUV
Chroma subsampling : 4:2:0
Bit depth : 8 bits
Scan type : Progressive
Bits/(Pixel*Frame) : 0.167
Stream size : 2.97 GiB (93%)
Default : Yes
Forced : No
Color range : Limited
Color primaries : BT.709
Transfer characteristics : BT.709
Matrix coefficients : BT.709

Audio
ID : 2
Format : E-AC-3
Format/Info : Enhanced Audio Coding 3
Format settings, Endianness : Big
Codec ID : A_EAC3
Duration : 49 min 3 s
Bit rate mode : Constant
Bit rate : 640 kb/s
Channel(s) : 6 channels
Channel positions : Front: L C R, Side: L R, LFE
Sampling rate : 48.0 kHz
Frame rate : 187.500 FPS (256 SPF)
Compression mode : Lossy
Stream size : 225 MiB (7%)
Title : BonsaiHD.Com
Language : Hindi
Service kind : Complete Main
Default : Yes
Forced : No

Text
ID : 3
Format : UTF-8
Codec ID : S_TEXT/UTF8
Codec ID/Info : UTF-8 Plain Text
Duration : 46 min 40 s
Bit rate : 60 b/s
Count of elements : 642
Stream size : 20.8 KiB (0%)
Title : BonsaiHD.Com
Language : English
Default : Yes
Forced : No





Inside Edge S02E05


Inside Edge S02E05


Inside Edge S02E05


Inside Edge S02E05


Inside Edge S02E05

All episodes