Featured TV Shows


The Middle S05E04

Posted By: Tavaz
1080p (FullHD) / WEBRip IMDb
The Middle S05E04

The Middle S05E04
WEBRip | MKV | 1920x1080 | English | H264 @ 10350 kbps | E-AC-3 @ 224 kbps | 21 min 29 s | 1.59 GiB
Subtitles: English
Genre: Komedi


The daily mishaps of a married woman and her semi-dysfunctional family and their attempts to survive life in general in the city of Orson, Indiana.

30744078d0e9451992b1ea00385281d1.mkv (1.6 GB)



General
Unique ID : 283123574222137835955041434898247185156 (0xD4FF9DF0CDF6923022D6791E763FF304)
Complete name : ./30744078d0e9451992b1ea00385281d1.mkv
Format : Matroska
Format version : Version 4 / Version 2
File size : 1.59 GiB
Duration : 21 min 29 s
Overall bit rate : 10.6 Mb/s
Encoded date : UTC 2020-05-16 17:56:12
Writing application : mkvmerge v46.0.0 ('No Deeper Escape') 64-bit
Writing library : libebml v1.3.10 + libmatroska v1.5.2

Video
ID : 1
Format : AVC
Format/Info : Advanced Video Codec
Format profile : High@L4
Format settings : CABAC / 4 Ref Frames
Format settings, CABAC : Yes
Format settings, RefFrames : 4 frames
Codec ID : V_MPEG4/ISO/AVC
Duration : 21 min 29 s
Bit rate : 10.4 Mb/s
Width : 1 920 pixels
Height : 1 080 pixels
Display aspect ratio : 16:9
Frame rate mode : Constant
Frame rate : 25.000 FPS
Color space : YUV
Chroma subsampling : 4:2:0
Bit depth : 8 bits
Scan type : Progressive
Bits/(Pixel*Frame) : 0.200
Stream size : 1.55 GiB (98%)
Language : English
Default : Yes
Forced : No
Color range : Limited
Color primaries : BT.709
Transfer characteristics : BT.709
Matrix coefficients : BT.709

Audio
ID : 2
Format : E-AC-3
Format/Info : Enhanced Audio Coding 3
Format settings, Endianness : Big
Codec ID : A_EAC3
Duration : 21 min 29 s
Bit rate mode : Constant
Bit rate : 224 kb/s
Channel(s) : 2 channels
Channel positions : Front: L R
Sampling rate : 48.0 kHz
Frame rate : 187.500 FPS (256 SPF)
Compression mode : Lossy
Stream size : 34.4 MiB (2%)
Title : English
Language : English
Service kind : Complete Main
Default : Yes
Forced : No

Text
ID : 3
Format : UTF-8
Codec ID : S_TEXT/UTF8
Codec ID/Info : UTF-8 Plain Text
Duration : 21 min 23 s
Bit rate : 127 b/s
Count of elements : 608
Stream size : 20.0 KiB (0%)
Title : English (SDH)
Language : English
Default : No
Forced : No





The Middle S05E04


The Middle S05E04


The Middle S05E04


The Middle S05E04

All episodes