Featured TV Shows


Justice League Action S01E01

Posted By: Tavaz
1080p (FullHD) / WEB-DL IMDb
Justice League Action S01E01

Justice League Action S01E01
WEB-DL | MKV | 1908x1070 | English | H264 @ 5094 kbps | AC-3 @ 384 kbps | 43 min 26 s | 1.66 GiB
Subtitles: English
Genre: Animation, Family

Batman, Superman and Wonder Woman will lead the DC Super Heroes against their most infamous foes.

b491195dfaf04dc89698cf0f80e6de58.mkv (1.7 GB)



General
Unique ID : 247565593427145110881986910313203896135 (0xBA3F66221EC7B1DAB3271A4B94940F47)
Complete name : ./b491195dfaf04dc89698cf0f80e6de58.mkv
Format : Matroska
Format version : Version 4 / Version 2
File size : 1.66 GiB
Duration : 43 min 26 s
Overall bit rate : 5 480 kb/s
Encoded date : UTC 2016-12-17 15:30:46
Writing application : mkvmerge v9.6.0 ('Slave To Your Mind') 64bit
Writing library : libebml v1.3.4 + libmatroska v1.4.5

Video
ID : 1
Format : AVC
Format/Info : Advanced Video Codec
Format profile : High@L4
Format settings : CABAC / 4 Ref Frames
Format settings, CABAC : Yes
Format settings, RefFrames : 4 frames
Codec ID : V_MPEG4/ISO/AVC
Duration : 43 min 26 s
Bit rate : 5 094 kb/s
Width : 1 908 pixels
Height : 1 070 pixels
Display aspect ratio : 16:9
Frame rate mode : Constant
Frame rate : 23.976 (23976/1000) FPS
Color space : YUV
Chroma subsampling : 4:2:0
Bit depth : 8 bits
Scan type : Progressive
Bits/(Pixel*Frame) : 0.104
Stream size : 1.55 GiB (93%)
Language : English
Default : Yes
Forced : No
Color range : Limited
Color primaries : BT.709
Transfer characteristics : BT.709
Matrix coefficients : BT.709

Audio
ID : 2
Format : AC-3
Format/Info : Audio Coding 3
Format settings, Endianness : Big
Codec ID : A_AC3
Duration : 43 min 26 s
Bit rate mode : Constant
Bit rate : 384 kb/s
Channel(s) : 6 channels
Channel positions : Front: L C R, Side: L R, LFE
Sampling rate : 48.0 kHz
Frame rate : 31.250 FPS (1536 SPF)
Bit depth : 16 bits
Compression mode : Lossy
Stream size : 119 MiB (7%)
Language : English
Service kind : Complete Main
Default : Yes
Forced : No

Text
ID : 3
Format : UTF-8
Codec ID : S_TEXT/UTF8
Codec ID/Info : UTF-8 Plain Text
Duration : 42 min 56 s
Bit rate : 62 b/s
Count of elements : 725
Stream size : 19.7 KiB (0%)
Language : English
Default : Yes
Forced : No





Justice League Action S01E01


Justice League Action S01E01


Justice League Action S01E01


Justice League Action S01E01


Justice League Action S01E01

All episodes