Featured TV Shows


Justice League Action S01E51

Posted By: Tavaz
1080p (FullHD) / WEB-DL IMDb
Justice League Action S01E51

Justice League Action S01E51
WEB-DL | MKV | 1920x1080 | English | H264 @ 3350 kbps | E-AC-3 @ 640 kbps | 11 min 12 s | 320 MiB
Subtitles: English
Genre: Animation, Family

Batman, Superman and Wonder Woman will lead the DC Super Heroes against their most infamous foes.

e918bb1e80db4f26af828491df908032.mkv (319.9 MB)



General
Unique ID : 124010983201125144775366719470368966340 (0x5D4BA5877239EC0AF3AC9B10D24BC6C4)
Complete name : ./e918bb1e80db4f26af828491df908032.mkv
Format : Matroska
Format version : Version 4 / Version 2
File size : 320 MiB
Duration : 11 min 12 s
Overall bit rate mode : Variable
Overall bit rate : 3 992 kb/s
Encoded date : UTC 2018-02-06 12:47:09
Writing application : mkvmerge v20.0.0 ('I Am The Sun') 64-bit
Writing library : libebml v1.3.5 + libmatroska v1.4.8

Video
ID : 1
Format : AVC
Format/Info : Advanced Video Codec
Format profile : High@L4
Format settings : CABAC / 4 Ref Frames
Format settings, CABAC : Yes
Format settings, RefFrames : 4 frames
Codec ID : V_MPEG4/ISO/AVC
Duration : 11 min 12 s
Bit rate mode : Variable
Bit rate : 3 351 kb/s
Maximum bit rate : 15.0 Mb/s
Width : 1 920 pixels
Height : 1 080 pixels
Display aspect ratio : 16:9
Frame rate mode : Constant
Frame rate : 23.976 (24000/1001) FPS
Color space : YUV
Chroma subsampling : 4:2:0
Bit depth : 8 bits
Scan type : Progressive
Bits/(Pixel*Frame) : 0.067
Stream size : 268 MiB (84%)
Default : Yes
Forced : No
Color range : Limited
Color primaries : BT.709
Transfer characteristics : BT.709
Matrix coefficients : BT.709

Audio
ID : 2
Format : E-AC-3
Format/Info : Enhanced Audio Coding 3
Format settings, Endianness : Big
Codec ID : A_EAC3
Duration : 11 min 12 s
Bit rate mode : Constant
Bit rate : 640 kb/s
Channel(s) : 6 channels
Channel positions : Front: L C R, Side: L R, LFE
Sampling rate : 48.0 kHz
Frame rate : 187.500 FPS (256 SPF)
Compression mode : Lossy
Stream size : 51.3 MiB (16%)
Language : English
Service kind : Complete Main
Default : Yes
Forced : No

Text
ID : 3
Format : UTF-8
Codec ID : S_TEXT/UTF8
Codec ID/Info : UTF-8 Plain Text
Duration : 10 min 58 s
Bit rate : 57 b/s
Count of elements : 194
Stream size : 4.58 KiB (0%)
Language : English
Default : Yes
Forced : No





Justice League Action S01E51


Justice League Action S01E51


Justice League Action S01E51


Justice League Action S01E51


Justice League Action S01E51

All episodes