Featured TV Shows


Justice League Action S01E02

Posted By: Tavaz
1080p (FullHD) / WEB-DL IMDb
Justice League Action S01E02

Justice League Action S01E02
WEB-DL | MKV | 1920x1080 | English | H264 @ 5262 kbps | E-AC-3 @ 640 kbps | 10 min 45 s | 455 MiB
Subtitles: English
Genre: Animation, Family

Batman, Superman and Wonder Woman will lead the DC Super Heroes against their most infamous foes.

Justice.League.Action.S01E02.Power.Outage.2.1080p.AMZN.WEB-DL.DD.5.1.H.264-CtrlHD.mkv (454.7 MB)



General
Unique ID : 208621911322849376353966207980897997910 (0x9CF31E5D0A91F79E822876ED65769456)
Complete name : ./Justice.League.Action.S01E02.Power.Outage.2.1080p.AMZN.WEB-DL.DD.5.1.H.264-CtrlHD.mkv
Format : Matroska
Format version : Version 4 / Version 2
File size : 455 MiB
Duration : 10 min 45 s
Overall bit rate mode : Variable
Overall bit rate : 5 905 kb/s
Encoded date : UTC 2017-11-19 00:50:22
Writing application : mkvmerge v18.0.0 ('Apricity') 64-bit
Writing library : libebml v1.3.5 + libmatroska v1.4.8

Video
ID : 1
Format : AVC
Format/Info : Advanced Video Codec
Format profile : High@L4
Format settings : CABAC / 4 Ref Frames
Format settings, CABAC : Yes
Format settings, RefFrames : 4 frames
Codec ID : V_MPEG4/ISO/AVC
Duration : 10 min 45 s
Bit rate mode : Variable
Bit rate : 5 263 kb/s
Maximum bit rate : 15.0 Mb/s
Width : 1 920 pixels
Height : 1 080 pixels
Display aspect ratio : 16:9
Frame rate mode : Constant
Frame rate : 23.976 (23976/1000) FPS
Original frame rate : 23.976 (24000/1001) FPS
Color space : YUV
Chroma subsampling : 4:2:0
Bit depth : 8 bits
Scan type : Progressive
Bits/(Pixel*Frame) : 0.106
Stream size : 405 MiB (89%)
Language : English
Default : No
Forced : No
Color range : Limited
Color primaries : BT.709
Transfer characteristics : BT.709
Matrix coefficients : BT.709

Audio
ID : 2
Format : E-AC-3
Format/Info : Enhanced Audio Coding 3
Format settings, Endianness : Big
Codec ID : A_EAC3
Duration : 10 min 45 s
Bit rate mode : Constant
Bit rate : 640 kb/s
Channel(s) : 6 channels
Channel positions : Front: L C R, Side: L R, LFE
Sampling rate : 48.0 kHz
Frame rate : 187.500 FPS (256 SPF)
Compression mode : Lossy
Stream size : 49.3 MiB (11%)
Language : English
Service kind : Complete Main
Default : Yes
Forced : No

Text
ID : 3
Format : UTF-8
Codec ID : S_TEXT/UTF8
Codec ID/Info : UTF-8 Plain Text
Duration : 10 min 39 s
Bit rate : 62 b/s
Count of elements : 192
Stream size : 4.89 KiB (0%)
Language : English
Default : Yes
Forced : No





Justice League Action S01E02


Justice League Action S01E02


Justice League Action S01E02


Justice League Action S01E02


Justice League Action S01E02

All episodes