Featured TV Shows


Justice League Action S01E05

Posted By: Tavaz
720p (HD) / WEB-DL IMDb
Justice League Action S01E05

Justice League Action S01E05
WEB-DL | MKV | 1280x718 | English | H264 @ 4033 kbps | AC-3 @ 384 kbps | 11 min 16 s | 357 MiB
Subtitles: English
Genre: Animation, Family

Batman, Superman and Wonder Woman will lead the DC Super Heroes against their most infamous foes.

31d8c2edfb62470c9799b3bd0918a7e6.mkv (356.5 MB)



General
Unique ID : 248457933859278212954408018736488160030 (0xBAEB41E9D131633585DBDDBBBF3C9B1E)
Complete name : ./31d8c2edfb62470c9799b3bd0918a7e6.mkv
Format : Matroska
Format version : Version 4 / Version 2
File size : 357 MiB
Duration : 11 min 16 s
Overall bit rate : 4 419 kb/s
Encoded date : UTC 2017-01-26 16:08:23
Writing application : mkvmerge v9.8.0 ('Kuglblids') 64bit
Writing library : libebml v1.3.4 + libmatroska v1.4.5

Video
ID : 1
Format : AVC
Format/Info : Advanced Video Codec
Format profile : High@L3.1
Format settings : 2 Ref Frames
Format settings, CABAC : No
Format settings, RefFrames : 2 frames
Codec ID : V_MPEG4/ISO/AVC
Duration : 11 min 16 s
Bit rate : 4 033 kb/s
Width : 1 280 pixels
Height : 718 pixels
Display aspect ratio : 16:9
Frame rate mode : Constant
Frame rate : 23.976 (24000/1001) FPS
Color space : YUV
Chroma subsampling : 4:2:0
Bit depth : 8 bits
Scan type : Progressive
Bits/(Pixel*Frame) : 0.183
Stream size : 325 MiB (91%)
Language : English
Default : Yes
Forced : No
Color range : Limited
Color primaries : BT.709
Transfer characteristics : BT.709
Matrix coefficients : BT.709

Audio
ID : 2
Format : AC-3
Format/Info : Audio Coding 3
Format settings, Endianness : Big
Codec ID : A_AC3
Duration : 11 min 16 s
Bit rate mode : Constant
Bit rate : 384 kb/s
Channel(s) : 6 channels
Channel positions : Front: L C R, Side: L R, LFE
Sampling rate : 48.0 kHz
Frame rate : 31.250 FPS (1536 SPF)
Bit depth : 16 bits
Compression mode : Lossy
Stream size : 31.0 MiB (9%)
Language : English
Service kind : Complete Main
Default : Yes
Forced : No

Text
ID : 3
Format : UTF-8
Codec ID : S_TEXT/UTF8
Codec ID/Info : UTF-8 Plain Text
Duration : 11 min 1 s
Bit rate : 67 b/s
Count of elements : 186
Stream size : 5.42 KiB (0%)
Language : English
Default : Yes
Forced : No





Justice League Action S01E05


Justice League Action S01E05


Justice League Action S01E05


Justice League Action S01E05


Justice League Action S01E05

All episodes