Featured TV Shows


Justice League Action S01E05

Posted By: Tavaz
1080p (FullHD) / WEB-DL IMDb
Justice League Action S01E05

Justice League Action S01E05
WEB-DL | MKV | 1916x1076 | English | H264 @ 5150 kbps | AC-3 @ 384 kbps | 11 min 16 s | 447 MiB
Subtitles: English
Genre: Animation, Family

Batman, Superman and Wonder Woman will lead the DC Super Heroes against their most infamous foes.

f91114f3537340bd9033a5c34503efc0.mkv (446.7 MB)



General
Unique ID : 200171816000679618098338796667564364490 (0x9697B07F853E1CE6800B0F57B6CA92CA)
Complete name : ./f91114f3537340bd9033a5c34503efc0.mkv
Format : Matroska
Format version : Version 4 / Version 2
File size : 447 MiB
Duration : 11 min 16 s
Overall bit rate : 5 537 kb/s
Encoded date : UTC 2017-01-26 16:08:15
Writing application : mkvmerge v9.8.0 ('Kuglblids') 64bit
Writing library : libebml v1.3.4 + libmatroska v1.4.5

Video
ID : 1
Format : AVC
Format/Info : Advanced Video Codec
Format profile : High@L4
Format settings : CABAC / 4 Ref Frames
Format settings, CABAC : Yes
Format settings, RefFrames : 4 frames
Codec ID : V_MPEG4/ISO/AVC
Duration : 11 min 16 s
Bit rate : 5 151 kb/s
Width : 1 916 pixels
Height : 1 076 pixels
Display aspect ratio : 16:9
Frame rate mode : Constant
Frame rate : 23.976 (24000/1001) FPS
Color space : YUV
Chroma subsampling : 4:2:0
Bit depth : 8 bits
Scan type : Progressive
Bits/(Pixel*Frame) : 0.104
Stream size : 416 MiB (93%)
Language : English
Default : Yes
Forced : No
Color range : Limited
Color primaries : BT.709
Transfer characteristics : BT.709
Matrix coefficients : BT.709

Audio
ID : 2
Format : AC-3
Format/Info : Audio Coding 3
Format settings, Endianness : Big
Codec ID : A_AC3
Duration : 11 min 16 s
Bit rate mode : Constant
Bit rate : 384 kb/s
Channel(s) : 6 channels
Channel positions : Front: L C R, Side: L R, LFE
Sampling rate : 48.0 kHz
Frame rate : 31.250 FPS (1536 SPF)
Bit depth : 16 bits
Compression mode : Lossy
Stream size : 31.0 MiB (7%)
Language : English
Service kind : Complete Main
Default : Yes
Forced : No

Text
ID : 3
Format : UTF-8
Codec ID : S_TEXT/UTF8
Codec ID/Info : UTF-8 Plain Text
Duration : 11 min 1 s
Bit rate : 67 b/s
Count of elements : 186
Stream size : 5.42 KiB (0%)
Language : English
Default : Yes
Forced : No





Justice League Action S01E05


Justice League Action S01E05


Justice League Action S01E05


Justice League Action S01E05


Justice League Action S01E05

All episodes