Featured TV Shows


Justice League Action S01E07

Posted By: Tavaz
720p (HD) / WEB-DL IMDb
Justice League Action S01E07

Justice League Action S01E07
WEB-DL | MKV | 1280x718 | English | H264 @ 4028 kbps | AC-3 @ 384 kbps | 11 min 21 s | 359 MiB
Subtitles: English
Genre: Animation, Family

Batman, Superman and Wonder Woman will lead the DC Super Heroes against their most infamous foes.

eedb6c8b548242038da74ca41f83ccda.mkv (358.6 MB)



General
Unique ID : 189983331474522188055283040281385576630 (0x8EED756D80982A7E81845AF1F31928B6)
Complete name : ./eedb6c8b548242038da74ca41f83ccda.mkv
Format : Matroska
Format version : Version 4 / Version 2
File size : 359 MiB
Duration : 11 min 21 s
Overall bit rate : 4 414 kb/s
Encoded date : UTC 2017-02-06 02:05:08
Writing application : mkvmerge v9.8.0 ('Kuglblids') 64bit
Writing library : libebml v1.3.4 + libmatroska v1.4.5

Video
ID : 2
Format : AVC
Format/Info : Advanced Video Codec
Format profile : High@L3.1
Format settings : 2 Ref Frames
Format settings, CABAC : No
Format settings, RefFrames : 2 frames
Codec ID : V_MPEG4/ISO/AVC
Duration : 11 min 21 s
Bit rate : 4 028 kb/s
Width : 1 280 pixels
Height : 718 pixels
Display aspect ratio : 16:9
Frame rate mode : Constant
Frame rate : 23.976 (23976/1000) FPS
Color space : YUV
Chroma subsampling : 4:2:0
Bit depth : 8 bits
Scan type : Progressive
Bits/(Pixel*Frame) : 0.183
Stream size : 327 MiB (91%)
Language : English
Default : Yes
Forced : No
Color range : Limited
Color primaries : BT.709
Transfer characteristics : BT.709
Matrix coefficients : BT.709

Audio
ID : 1
Format : AC-3
Format/Info : Audio Coding 3
Format settings, Endianness : Big
Codec ID : A_AC3
Duration : 11 min 21 s
Bit rate mode : Constant
Bit rate : 384 kb/s
Channel(s) : 6 channels
Channel positions : Front: L C R, Side: L R, LFE
Sampling rate : 48.0 kHz
Frame rate : 31.250 FPS (1536 SPF)
Bit depth : 16 bits
Compression mode : Lossy
Stream size : 31.2 MiB (9%)
Language : English
Service kind : Complete Main
Default : Yes
Forced : No

Text
ID : 3
Format : UTF-8
Codec ID : S_TEXT/UTF8
Codec ID/Info : UTF-8 Plain Text
Duration : 11 min 6 s
Bit rate : 46 b/s
Count of elements : 155
Stream size : 3.74 KiB (0%)
Language : English
Default : Yes
Forced : No





Justice League Action S01E07


Justice League Action S01E07


Justice League Action S01E07


Justice League Action S01E07


Justice League Action S01E07

All episodes