Featured TV Shows


Justice League Action S01E09

Posted By: Tavaz
1080p (FullHD) / WEB-DL IMDb
Justice League Action S01E09

Justice League Action S01E09
WEB-DL | MKV | 1912x1072 | English | H264 @ 5132 kbps | AC-3 @ 384 kbps | 10 min 57 s | 432 MiB
Subtitles: English
Genre: Animation, Family

Batman, Superman and Wonder Woman will lead the DC Super Heroes against their most infamous foes.

7b3d8aa665d14cb58a645807f8977cac.mkv (432.3 MB)



General
Unique ID : 243163716944946757221413179527533243543 (0xB6EFA0DDDB88180C8411013799892C97)
Complete name : ./7b3d8aa665d14cb58a645807f8977cac.mkv
Format : Matroska
Format version : Version 4 / Version 2
File size : 432 MiB
Duration : 10 min 57 s
Overall bit rate : 5 518 kb/s
Encoded date : UTC 2017-02-19 13:51:01
Writing application : mkvmerge v9.8.0 ('Kuglblids') 64bit
Writing library : libebml v1.3.4 + libmatroska v1.4.5

Video
ID : 2
Format : AVC
Format/Info : Advanced Video Codec
Format profile : High@L4
Format settings : CABAC / 4 Ref Frames
Format settings, CABAC : Yes
Format settings, RefFrames : 4 frames
Codec ID : V_MPEG4/ISO/AVC
Duration : 10 min 57 s
Bit rate : 5 132 kb/s
Width : 1 912 pixels
Height : 1 072 pixels
Display aspect ratio : 16:9
Frame rate mode : Constant
Frame rate : 23.976 (23976/1000) FPS
Color space : YUV
Chroma subsampling : 4:2:0
Bit depth : 8 bits
Scan type : Progressive
Bits/(Pixel*Frame) : 0.104
Stream size : 402 MiB (93%)
Language : English
Default : Yes
Forced : No
Color range : Limited
Color primaries : BT.709
Transfer characteristics : BT.709
Matrix coefficients : BT.709

Audio
ID : 1
Format : AC-3
Format/Info : Audio Coding 3
Format settings, Endianness : Big
Codec ID : A_AC3
Duration : 10 min 57 s
Bit rate mode : Constant
Bit rate : 384 kb/s
Channel(s) : 6 channels
Channel positions : Front: L C R, Side: L R, LFE
Sampling rate : 48.0 kHz
Frame rate : 31.250 FPS (1536 SPF)
Bit depth : 16 bits
Compression mode : Lossy
Stream size : 30.1 MiB (7%)
Language : English
Service kind : Complete Main
Default : Yes
Forced : No

Text
ID : 3
Format : UTF-8
Codec ID : S_TEXT/UTF8
Codec ID/Info : UTF-8 Plain Text
Duration : 10 min 41 s
Bit rate : 52 b/s
Count of elements : 145
Stream size : 4.10 KiB (0%)
Language : English
Default : Yes
Forced : No





Justice League Action S01E09


Justice League Action S01E09


Justice League Action S01E09


Justice League Action S01E09


Justice League Action S01E09

All episodes