Featured TV Shows


Justice League Action S01E12

Posted By: Tavaz
1080p (FullHD) / WEB-DL IMDb
Justice League Action S01E12

Justice League Action S01E12
WEB-DL | MKV | 1912x1072 | English | H264 @ 5146 kbps | AC-3 @ 384 kbps | 10 min 49 s | 428 MiB
Subtitles: English
Genre: Animation, Family

Batman, Superman and Wonder Woman will lead the DC Super Heroes against their most infamous foes.

742014018e4944dfb002db15c15f0c60.mkv (428.4 MB)



General
Unique ID : 198265056864039387530321433614553639101 (0x95287603B410F6FB81FC3CF5FE3EE8BD)
Complete name : ./742014018e4944dfb002db15c15f0c60.mkv
Format : Matroska
Format version : Version 4 / Version 2
File size : 428 MiB
Duration : 10 min 49 s
Overall bit rate : 5 532 kb/s
Encoded date : UTC 2017-03-12 16:58:17
Writing application : mkvmerge v9.9.0 ('Pick Up') 64bit
Writing library : libebml v1.3.4 + libmatroska v1.4.5

Video
ID : 1
Format : AVC
Format/Info : Advanced Video Codec
Format profile : High@L4
Format settings : CABAC / 4 Ref Frames
Format settings, CABAC : Yes
Format settings, RefFrames : 4 frames
Codec ID : V_MPEG4/ISO/AVC
Duration : 10 min 49 s
Bit rate : 5 147 kb/s
Width : 1 912 pixels
Height : 1 072 pixels
Display aspect ratio : 16:9
Frame rate mode : Constant
Frame rate : 23.976 (23976/1000) FPS
Color space : YUV
Chroma subsampling : 4:2:0
Bit depth : 8 bits
Scan type : Progressive
Bits/(Pixel*Frame) : 0.105
Stream size : 399 MiB (93%)
Language : English
Default : Yes
Forced : No
Color range : Limited
Color primaries : BT.709
Transfer characteristics : BT.709
Matrix coefficients : BT.709

Audio
ID : 2
Format : AC-3
Format/Info : Audio Coding 3
Format settings, Endianness : Big
Codec ID : A_AC3
Duration : 10 min 49 s
Bit rate mode : Constant
Bit rate : 384 kb/s
Channel(s) : 6 channels
Channel positions : Front: L C R, Side: L R, LFE
Sampling rate : 48.0 kHz
Frame rate : 31.250 FPS (1536 SPF)
Bit depth : 16 bits
Compression mode : Lossy
Stream size : 29.7 MiB (7%)
Language : English
Service kind : Complete Main
Default : Yes
Forced : No

Text
ID : 3
Format : UTF-8
Codec ID : S_TEXT/UTF8
Codec ID/Info : UTF-8 Plain Text
Duration : 10 min 23 s
Bit rate : 59 b/s
Count of elements : 164
Stream size : 4.54 KiB (0%)
Language : English
Default : Yes
Forced : No





Justice League Action S01E12


Justice League Action S01E12


Justice League Action S01E12


Justice League Action S01E12


Justice League Action S01E12

All episodes