Featured TV Shows


Justice League Action S01E14

Posted By: Tavaz
1080p (FullHD) / WEB-DL IMDb
Justice League Action S01E14

Justice League Action S01E14
WEB-DL | MKV | 1912x1072 | English | H264 @ 5124 kbps | AC-3 @ 384 kbps | 11 min 5 s | 437 MiB
Subtitles: English
Genre: Animation, Family

Batman, Superman and Wonder Woman will lead the DC Super Heroes against their most infamous foes.

b60d8f5c7aa8480f8cc58cbd37eccba7.mkv (437.2 MB)



General
Unique ID : 198338762562697465792812108680247810243 (0x9536A7FC68F59A528F67EE49242E98C3)
Complete name : ./b60d8f5c7aa8480f8cc58cbd37eccba7.mkv
Format : Matroska
Format version : Version 4 / Version 2
File size : 437 MiB
Duration : 11 min 5 s
Overall bit rate : 5 510 kb/s
Encoded date : UTC 2017-03-27 13:48:43
Writing application : mkvmerge v10.0.0 ('To Drown In You') 64bit
Writing library : libebml v1.3.4 + libmatroska v1.4.5

Video
ID : 1
Format : AVC
Format/Info : Advanced Video Codec
Format profile : High@L4
Format settings : CABAC / 4 Ref Frames
Format settings, CABAC : Yes
Format settings, RefFrames : 4 frames
Codec ID : V_MPEG4/ISO/AVC
Duration : 11 min 5 s
Bit rate : 5 125 kb/s
Width : 1 912 pixels
Height : 1 072 pixels
Display aspect ratio : 16:9
Frame rate mode : Constant
Frame rate : 23.976 (23976/1000) FPS
Color space : YUV
Chroma subsampling : 4:2:0
Bit depth : 8 bits
Scan type : Progressive
Bits/(Pixel*Frame) : 0.104
Stream size : 407 MiB (93%)
Language : English
Default : Yes
Forced : No
Color range : Limited
Color primaries : BT.709
Transfer characteristics : BT.709
Matrix coefficients : BT.709

Audio
ID : 2
Format : AC-3
Format/Info : Audio Coding 3
Format settings, Endianness : Big
Codec ID : A_AC3
Duration : 11 min 5 s
Bit rate mode : Constant
Bit rate : 384 kb/s
Channel(s) : 6 channels
Channel positions : Front: L C R, Side: L R, LFE
Sampling rate : 48.0 kHz
Frame rate : 31.250 FPS (1536 SPF)
Bit depth : 16 bits
Compression mode : Lossy
Delay relative to video : -42 ms
Stream size : 30.5 MiB (7%)
Language : English
Service kind : Complete Main
Default : Yes
Forced : No

Text
ID : 3
Format : UTF-8
Codec ID : S_TEXT/UTF8
Codec ID/Info : UTF-8 Plain Text
Duration : 10 min 43 s
Bit rate : 48 b/s
Count of elements : 152
Stream size : 3.81 KiB (0%)
Language : English
Default : Yes
Forced : No





Justice League Action S01E14


Justice League Action S01E14


Justice League Action S01E14


Justice League Action S01E14


Justice League Action S01E14

All episodes