Featured TV Shows


Justice League Action S01E14

Posted By: Tavaz
720p (HD) / WEB-DL IMDb
Justice League Action S01E14

Justice League Action S01E14
WEB-DL | MKV | 1280x718 | English | H264 @ 4067 kbps | AC-3 @ 384 kbps | 11 min 5 s | 353 MiB
Subtitles: English
Genre: Animation, Family

Batman, Superman and Wonder Woman will lead the DC Super Heroes against their most infamous foes.

db94355001b2468aa7e3b2c9820183c9.mkv (353.4 MB)



General
Unique ID : 174716231233463779002643607317406698348 (0x83711F453DFCFEA5BEE08862CF864B6C)
Complete name : ./db94355001b2468aa7e3b2c9820183c9.mkv
Format : Matroska
Format version : Version 4 / Version 2
File size : 353 MiB
Duration : 11 min 5 s
Overall bit rate : 4 453 kb/s
Encoded date : UTC 2017-03-27 13:46:57
Writing application : mkvmerge v10.0.0 ('To Drown In You') 64bit
Writing library : libebml v1.3.4 + libmatroska v1.4.5

Video
ID : 1
Format : AVC
Format/Info : Advanced Video Codec
Format profile : High@L3.1
Format settings : 2 Ref Frames
Format settings, CABAC : No
Format settings, RefFrames : 2 frames
Codec ID : V_MPEG4/ISO/AVC
Duration : 11 min 5 s
Bit rate : 4 067 kb/s
Width : 1 280 pixels
Height : 718 pixels
Display aspect ratio : 16:9
Frame rate mode : Constant
Frame rate : 23.976 (24000/1001) FPS
Color space : YUV
Chroma subsampling : 4:2:0
Bit depth : 8 bits
Scan type : Progressive
Bits/(Pixel*Frame) : 0.185
Stream size : 323 MiB (91%)
Language : English
Default : Yes
Forced : No
Color range : Limited
Color primaries : BT.709
Transfer characteristics : BT.709
Matrix coefficients : BT.709

Audio
ID : 2
Format : AC-3
Format/Info : Audio Coding 3
Format settings, Endianness : Big
Codec ID : A_AC3
Duration : 11 min 5 s
Bit rate mode : Constant
Bit rate : 384 kb/s
Channel(s) : 6 channels
Channel positions : Front: L C R, Side: L R, LFE
Sampling rate : 48.0 kHz
Frame rate : 31.250 FPS (1536 SPF)
Bit depth : 16 bits
Compression mode : Lossy
Stream size : 30.5 MiB (9%)
Language : English
Service kind : Complete Main
Default : Yes
Forced : No

Text
ID : 3
Format : UTF-8
Codec ID : S_TEXT/UTF8
Codec ID/Info : UTF-8 Plain Text
Duration : 10 min 43 s
Bit rate : 48 b/s
Count of elements : 152
Stream size : 3.81 KiB (0%)
Language : English
Default : Yes
Forced : No





Justice League Action S01E14


Justice League Action S01E14


Justice League Action S01E14


Justice League Action S01E14


Justice League Action S01E14

All episodes