Featured TV Shows


Justice League Action S01E15

Posted By: Tavaz
1080p (FullHD) / WEB-DL IMDb
Justice League Action S01E15

Justice League Action S01E15
WEB-DL | MKV | 1912x1072 | English | H264 @ 5204 kbps | AC-3 @ 384 kbps | 10 min 56 s | 437 MiB
Subtitles: English
Genre: Animation, Family

Batman, Superman and Wonder Woman will lead the DC Super Heroes against their most infamous foes.

95f10803ebd74fe589f1035048cd27ce.mkv (437.4 MB)



General
Unique ID : 224428922815323791868761501132688119954 (0xA8D770335BA3B3D6AFE9DEE0885ED892)
Complete name : ./95f10803ebd74fe589f1035048cd27ce.mkv
Format : Matroska
Format version : Version 4 / Version 2
File size : 437 MiB
Duration : 10 min 56 s
Overall bit rate : 5 590 kb/s
Encoded date : UTC 2017-04-10 11:57:55
Writing application : mkvmerge v10.0.0 ('To Drown In You') 64bit
Writing library : libebml v1.3.4 + libmatroska v1.4.5

Video
ID : 1
Format : AVC
Format/Info : Advanced Video Codec
Format profile : High@L4
Format settings : CABAC / 4 Ref Frames
Format settings, CABAC : Yes
Format settings, RefFrames : 4 frames
Codec ID : V_MPEG4/ISO/AVC
Duration : 10 min 56 s
Bit rate : 5 205 kb/s
Width : 1 912 pixels
Height : 1 072 pixels
Display aspect ratio : 16:9
Frame rate mode : Constant
Frame rate : 23.976 (24000/1001) FPS
Color space : YUV
Chroma subsampling : 4:2:0
Bit depth : 8 bits
Scan type : Progressive
Bits/(Pixel*Frame) : 0.106
Stream size : 407 MiB (93%)
Language : English
Default : Yes
Forced : No
Color range : Limited
Color primaries : BT.709
Transfer characteristics : BT.709
Matrix coefficients : BT.709

Audio
ID : 2
Format : AC-3
Format/Info : Audio Coding 3
Format settings, Endianness : Big
Codec ID : A_AC3
Duration : 10 min 56 s
Bit rate mode : Constant
Bit rate : 384 kb/s
Channel(s) : 6 channels
Channel positions : Front: L C R, Side: L R, LFE
Sampling rate : 48.0 kHz
Frame rate : 31.250 FPS (1536 SPF)
Bit depth : 16 bits
Compression mode : Lossy
Stream size : 30.0 MiB (7%)
Language : English
Service kind : Complete Main
Default : Yes
Forced : No

Text
ID : 3
Format : UTF-8
Codec ID : S_TEXT/UTF8
Codec ID/Info : UTF-8 Plain Text
Duration : 10 min 39 s
Bit rate : 43 b/s
Count of elements : 136
Stream size : 3.43 KiB (0%)
Language : English
Default : Yes
Forced : No





Justice League Action S01E15


Justice League Action S01E15


Justice League Action S01E15


Justice League Action S01E15


Justice League Action S01E15

All episodes