Featured TV Shows


Justice League Action S01E17

Posted By: Tavaz
720p (HD) / WEB-DL IMDb
Justice League Action S01E17

Justice League Action S01E17
WEB-DL | MKV | 1280x718 | English | H264 @ 4037 kbps | AC-3 @ 384 kbps | 11 min 14 s | 356 MiB
Subtitles: English
Genre: Animation, Family

Batman, Superman and Wonder Woman will lead the DC Super Heroes against their most infamous foes.

e92bde2d8eba4df48626d6e0d331ccce.mkv (355.7 MB)



General
Unique ID : 232533868552872017872732112795061117011 (0xAEF064E0A899E50EBF8BC81EEA62E053)
Complete name : ./e92bde2d8eba4df48626d6e0d331ccce.mkv
Format : Matroska
Format version : Version 4 / Version 2
File size : 356 MiB
Duration : 11 min 14 s
Overall bit rate : 4 423 kb/s
Encoded date : UTC 2017-05-22 21:39:56
Writing application : mkvmerge v11.0.0 ('Alive') 64bit
Writing library : libebml v1.3.4 + libmatroska v1.4.5

Video
ID : 1
Format : AVC
Format/Info : Advanced Video Codec
Format profile : High@L3.1
Format settings : 2 Ref Frames
Format settings, CABAC : No
Format settings, RefFrames : 2 frames
Codec ID : V_MPEG4/ISO/AVC
Duration : 11 min 14 s
Bit rate : 4 037 kb/s
Width : 1 280 pixels
Height : 718 pixels
Display aspect ratio : 16:9
Frame rate mode : Constant
Frame rate : 23.976 (24000/1001) FPS
Color space : YUV
Chroma subsampling : 4:2:0
Bit depth : 8 bits
Scan type : Progressive
Bits/(Pixel*Frame) : 0.183
Stream size : 325 MiB (91%)
Language : English
Default : Yes
Forced : No
Color range : Limited
Color primaries : BT.709
Transfer characteristics : BT.709
Matrix coefficients : BT.709

Audio
ID : 2
Format : AC-3
Format/Info : Audio Coding 3
Format settings, Endianness : Big
Codec ID : A_AC3
Duration : 11 min 14 s
Bit rate mode : Constant
Bit rate : 384 kb/s
Channel(s) : 6 channels
Channel positions : Front: L C R, Side: L R, LFE
Sampling rate : 48.0 kHz
Frame rate : 31.250 FPS (1536 SPF)
Bit depth : 16 bits
Compression mode : Lossy
Stream size : 30.9 MiB (9%)
Language : English
Service kind : Complete Main
Default : Yes
Forced : No

Text
ID : 3
Format : UTF-8
Codec ID : S_TEXT/UTF8
Codec ID/Info : UTF-8 Plain Text
Duration : 10 min 54 s
Bit rate : 64 b/s
Count of elements : 173
Stream size : 5.14 KiB (0%)
Language : English
Default : Yes
Forced : No





Justice League Action S01E17


Justice League Action S01E17


Justice League Action S01E17


Justice League Action S01E17


Justice League Action S01E17

All episodes