Featured TV Shows


Justice League Action S01E22

Posted By: Tavaz
1080p (FullHD) / WEB-DL IMDb
Justice League Action S01E22

Justice League Action S01E22
WEB-DL | MKV | 1912x1072 | English | H264 @ 5167 kbps | AC-3 @ 384 kbps | 11 min 5 s | 441 MiB
Subtitles: English
Genre: Animation, Family

Batman, Superman and Wonder Woman will lead the DC Super Heroes against their most infamous foes.

59b6359fd7b64d7eb838e9f235f7ac80.mkv (440.6 MB)



General
Unique ID : 190669471851994033356645033940218084071 (0x8F719AC29C5EB14F840FC56A0E74FAE7)
Complete name : ./59b6359fd7b64d7eb838e9f235f7ac80.mkv
Format : Matroska
Format version : Version 4 / Version 2
File size : 441 MiB
Duration : 11 min 5 s
Overall bit rate : 5 553 kb/s
Encoded date : UTC 2017-06-04 16:11:24
Writing application : mkvmerge v12.0.0 ('Trust / Lust') 64bit
Writing library : libebml v1.3.4 + libmatroska v1.4.5

Video
ID : 1
Format : AVC
Format/Info : Advanced Video Codec
Format profile : High@L4
Format settings : CABAC / 4 Ref Frames
Format settings, CABAC : Yes
Format settings, RefFrames : 4 frames
Codec ID : V_MPEG4/ISO/AVC
Duration : 11 min 5 s
Bit rate : 5 168 kb/s
Width : 1 912 pixels
Height : 1 072 pixels
Display aspect ratio : 16:9
Frame rate mode : Constant
Frame rate : 23.976 (24000/1001) FPS
Color space : YUV
Chroma subsampling : 4:2:0
Bit depth : 8 bits
Scan type : Progressive
Bits/(Pixel*Frame) : 0.105
Stream size : 410 MiB (93%)
Language : English
Default : Yes
Forced : No
Color range : Limited
Color primaries : BT.709
Transfer characteristics : BT.709
Matrix coefficients : BT.709

Audio
ID : 2
Format : AC-3
Format/Info : Audio Coding 3
Format settings, Endianness : Big
Codec ID : A_AC3
Duration : 11 min 5 s
Bit rate mode : Constant
Bit rate : 384 kb/s
Channel(s) : 6 channels
Channel positions : Front: L C R, Side: L R, LFE
Sampling rate : 48.0 kHz
Frame rate : 31.250 FPS (1536 SPF)
Bit depth : 16 bits
Compression mode : Lossy
Delay relative to video : -42 ms
Stream size : 30.5 MiB (7%)
Language : English
Service kind : Complete Main
Default : Yes
Forced : No

Text
ID : 3
Format : UTF-8
Codec ID : S_TEXT/UTF8
Codec ID/Info : UTF-8 Plain Text
Duration : 10 min 51 s
Bit rate : 65 b/s
Count of elements : 202
Stream size : 5.22 KiB (0%)
Language : English
Default : Yes
Forced : No





Justice League Action S01E22


Justice League Action S01E22


Justice League Action S01E22


Justice League Action S01E22


Justice League Action S01E22

All episodes